• Игры для PS4
  • Игры для PS3
  • Игры для XBOX360
  • Игры для PC
  • Игры для PS2
  • Игры для PSP
  • Для телефонов
  • Музыка
  • Книги/Журналы
  • Обои
  •  
    Опрос
    Откуда Вы о нас узнали?
      0
    • От знакомых2,1,false,300,full
    • Из социальных сетей2,2,false,300,full
    • Из поисковых систем2,3,false,300,full
    • Другое2,4,false,300,full
    Статистика
    Загрузка...
    Мальчик в синей футболке / Little Boy Blue [Серии 01-04 из 04] | HDTVRip 720p
    Статус  Проверено
    В закладки
    Модератор: Max

    Мальчик в синей футболке / Little Boy Blue [Серии 01-04 из 04] | HDTVRip 720p [Сериалы 2017] скачать торрентом/torrent бесплатно

    Год выхода
    Категории
    Язык
    Закачал
    Max | 07 июня 2017 в 12ч 12м 30с
    Раздел
    Отзывов
    0
    Раздают: 3 Качают: 1 Скачали: 23 Размер: 3.57 GB
    Инфо о раздаче | Благодарности |
    0/5
    0
    0 5 0
    Поддержи нас — расскажи друзьям!
    Orbitum
    Новый интернет-браузер Быстрее загружает сайты Экономит интернет—трафик Меняет оформление страницы ВК Блокирует всю рекламу на сайтах Загружает торренты как

    µTorrent

    клиент
    Объеденяет все твои чаты из соц. сетей в один Проигрывает твою музыку не заходя во ВКонтакте
    Скачать и многое другое... Подробности на сайте производителя
    Мальчик в синей футболке / Little Boy Blue

    Страна: Великобритания [img]http://st.kp.yandex.net/images/flags/flag-11.gif[/img]
    Производство: ITV Broadcasting, ITV Studios
    Год выпуска: 2017
    Сезон: 1
    Жанр:  драма, криминал, детектив
    Продолжительность: 4х ~00:46:00

    Режиссер: Пол Уиттингтон
    Автор сценария: Джефф Поуп

    В ролях: Синед Кинэн, Брайан Ф. О’Бирн, Мэтью Робертс, Стивен Грэм, Лаура Дос Сантос, Элизабет Беррингтон, Сара Пауэлл, Джоди МакНи

    Описание: В августе 2007 года 11-летний Рис Джонс по дороге домой после футбольного матча был убит местным хулиганом, 16-летним Шоном Мерсером. Свидетелей преступления было достаточно, однако все слишком боялись убийцу, и никто не осмелился дать показания...



    Перевод: Любительский (двухголосый, закадровый) | SNK-TV
    Субтитры: нет

    Качество: HDTVRip 720р
    Формат: МКV
    Видео кодек: AVC
    Аудио кодек: АС3
    Видео: 1280x720 (16:9), 25.000 fps, MPEG-4 AVC ~2 382 kbps avg
    Аудио №1: 48.0 kHz, AC3 Dolby Digital, 2/0 (L,R) ch, ~192 kbps | RUS
    Аудио №2: 48.0 kHz, AC3 Dolby Digital, 2/0 (L,R) ch, ~192 kbps | ENG

    Дата премьеры (мир): 24 апреля 2017

    [img]http://s010.radikal.ru/i313/1609/5b/ca3b75e82c69.gif[/img][img]http://s018.radikal.ru/i522/1609/79/3d079e982089.gif[/img]

    Media Info
    General
    Unique ID : 233028242166403697273124119097684481892 (0xAF4F9B60EB511545A7B84EA56D975764)
    Complete name : Little.Boy.Blue.S01E01.HDTVRip.720p.SNK-TV.mkv
    Format : Matroska
    Format version : Version 4 / Version 2
    File size : 929 MiB
    Duration : 46mn 0s
    Overall bit rate : 2 823 Kbps
    Movie name : Little Boy Blue S01E01
    Encoded date : UTC 2017-05-25 19:44:02
    Writing application : mkvmerge v8.1.0 ("Psychedelic Postcard") 64bit
    Writing library : libebml v1.3.1 + libmatroska v1.4.2
    DURATION : 00:46:00.192000000
    NUMBER_OF_FRAMES : 86256
    NUMBER_OF_BYTES : 66244608
    _STATISTICS_WRITING_APP : mkvmerge v8.1.0 ("Psychedelic Postcard") 64bit
    _STATISTICS_WRITING_DATE_UTC : 2017-05-25 19:44:02
    _STATISTICS_TAGS : BPS DURATION NUMBER_OF_FRAMES NUMBER_OF_BYTES

    Video
    ID : 1
    Format : AVC
    Format/Info : Advanced Video Codec
    Format profile : High@L4.1
    Format settings, CABAC : Yes
    Format settings, ReFrames : 5 frames
    Codec ID : V_MPEG4/ISO/AVC
    Duration : 46mn 0s
    Bit rate : 2 382 Kbps
    Width : 1 280 pixels
    Height : 720 pixels
    Display aspect ratio : 16:9
    Frame rate mode : Constant
    Frame rate : 25.000 fps
    Color space : YUV
    Chroma subsampling : 4:2:0
    Bit depth : 8 bits
    Scan type : Progressive
    Bits/(Pixel*Frame) : 0.103
    Stream size : 784 MiB (84%)
    Title : Little Boy Blue S01E01
    Writing library : x264 core 142 r2479 dd79a61
    Encoding settings : cabac=1 / ref=6 / deblock=1:0:0 / analyse=0x3:0x133 / me=umh / subme=8 / psy=1 / psy_rd=1.00:0.00 / mixed_ref=1 / me_range=18 / chroma_me=1 / trellis=2 / 8x8dct=1 / cqm=0 / deadzone=21,11 / fast_pskip=1 / chroma_qp_offset=-2 / threads=18 / lookahead_threads=4 / sliced_threads=0 / nr=0 / decimate=1 / interlaced=0 / bluray_compat=0 / constrained_intra=0 / bframes=5 / b_pyramid=1 / b_adapt=2 / b_bias=0 / direct=1 / weightb=1 / open_gop=0 / weightp=2 / keyint=250 / keyint_min=25 / scenecut=40 / intra_refresh=0 / rc_lookahead=40 / rc=crf / mbtree=1 / crf=17.0 / qcomp=0.60 / qpmin=0 / qpmax=69 / qpstep=4 / vbv_maxrate=85200 / vbv_bufsize=62500 / crf_max=0.0 / nal_hrd=none / filler=0 / ip_ratio=1.40 / aq=1:1.00
    Language : English
    Default : Yes
    Forced : No
    Color range : Limited
    Color primaries : BT.709
    Transfer characteristics : BT.709
    Matrix coefficients : BT.709
    DURATION : 00:46:00.120000000
    NUMBER_OF_FRAMES : 69003
    NUMBER_OF_BYTES : 840662127
    _STATISTICS_WRITING_APP : mkvmerge v8.1.0 ("Psychedelic Postcard") 64bit
    _STATISTICS_WRITING_DATE_UTC : 2017-05-25 19:44:02
    _STATISTICS_TAGS : BPS DURATION NUMBER_OF_FRAMES NUMBER_OF_BYTES

    Audio #1
    ID : 2
    Format : AC-3
    Format/Info : Audio Coding 3
    Mode extension : CM (complete main)
    Format settings, Endianness : Big
    Codec ID : A_AC3
    Duration : 46mn 0s
    Bit rate mode : Constant
    Bit rate : 192 Kbps
    Channel(s) : 2 channels
    Channel positions : Front: L R
    Sampling rate : 48.0 KHz
    Compression mode : Lossy
    Delay relative to video : -80ms
    Stream size : 63.2 MiB (7%)
    Title : Rus (SNK-TV)
    Language : Russian
    Default : Yes
    Forced : No

    Audio #2
    ID : 3
    Format : AC-3
    Format/Info : Audio Coding 3
    Mode extension : CM (complete main)
    Format settings, Endianness : Big
    Codec ID : A_AC3
    Duration : 46mn 0s
    Bit rate mode : Constant
    Bit rate : 192 Kbps
    Channel(s) : 2 channels
    Channel positions : Front: L R
    Sampling rate : 48.0 KHz
    Compression mode : Lossy
    Delay relative to video : -80ms
    Stream size : 63.2 MiB (7%)
    Title : Eng
    Language : English
    Default : No
    Forced : No


    Еще похожие »

    Как скачать?
    1. Качаем UTorrent версии 2.0 и выше отсюда
    2. После установки, жмем на ссылку Скачать торрент.
    3. Открываем его через utorrent.
    4. Ждем пока подключатся участники.
    5. Качаем.


    Комментарии о Мальчик в синей футболке / Little Boy Blue [Серии 01-04 из 04] | HDTVRip 720p
    Добавлять комментарии могут только зарегистрированные пользователи

    Зарегистрироваться или Войти


    Ближайшее в кино
    • МУЛЬТ в кино. Выпуск №77. Команда мечты дата выхода 23 июня 2018МУЛЬТ в кино. Выпуск №77. Команда мечты
      Дата выхода: 23 июня 2018
    • 1162775|Кто украл Banksy|25 июня 2018|200|300Кто украл Banksy
      Дата выхода: 25 июня 2018
    • 1031219|План побега 2|28 июня 2018|200|300План побега 2
      Дата выхода: 28 июня 2018
    • 938461|Убийца 2. Против всех|28 июня 2018|200|300Убийца 2. Против всех
      Дата выхода: 28 июня 2018
    • 912012|Распрекрасный принц|28 июня 2018|200|300Распрекрасный принц
      Дата выхода: 28 июня 2018
    • 1015040|Во власти стихии|28 июня 2018|200|300Во власти стихии
      Дата выхода: 28 июня 2018
    • 759874|Ты водишь!|28 июня 2018|200|300Ты водишь!
      Дата выхода: 28 июня 2018
    • 1077873|Книжный клуб|28 июня 2018|200|300Книжный клуб
      Дата выхода: 28 июня 2018
    • 1047708|Инсомния|28 июня 2018|200|300Инсомния
      Дата выхода: 28 июня 2018
    • 1026748|Джим Пуговка и машинист Лукас|28 июня 2018|200|300Джим Пуговка и машинист Лукас
      Дата выхода: 28 июня 2018
    • 1038941|Осторожно: Грамп!|28 июня 2018|200|300Осторожно: Грамп!
      Дата выхода: 28 июня 2018
    • 977767|50 весенних дней|28 июня 2018|200|30050 весенних дней
      Дата выхода: 28 июня 2018
    • 1162806|Идеальный муж|4 июля 2018|200|300Идеальный муж
      Дата выхода: 4 июля 2018
    • 935940|Человек-муравей и Оса|5 июля 2018|200|300Человек-муравей и Оса
      Дата выхода: 5 июля 2018
    • 977435|Невидимка|5 июля 2018|200|300Невидимка
      Дата выхода: 5 июля 2018
    Вверх