• Игры для PS4
  • Игры для PS3
  • Игры для XBOX360
  • Игры для PC
  • Игры для PS2
  • Игры для PSP
  • Для телефонов
  • Музыка
  • Книги / Журналы
  • Обои
  • Опрос
    Откуда Вы о нас узнали?
      0
    • От знакомых2,1,false,300,full
    • Из социальных сетей2,2,false,300,full
    • Из поисковых систем2,3,false,300,full
    • Другое2,4,false,300,full
    Статистика
    Всего онлайн -
    Гостей -
    Пользователей -
    Короли трекера
    Благодарности () Закрыть
    Информация о фильме
    Название: В спорте только девушки
    Оригинальное название: В спорте только девушки
    Год выхода: 2014
    Жанр:  комедия, спорт
    Режиссер: Евгений Невский
    В ролях: Лянка Грыу, Александр Головин, Екатерина Вилкова, Илья Глинников, Александр Ведменский, Михаил Трухин, Алена Чехова, Алексей Золотовицкий, Дмитрий Мухамадеев, Татьяна Рыбинец

    О фильме: Женская сборная по сноуборду ведет подготовку к Играм и направляется в Сочи на тестовые соревнования. Переодевшись в девушек, к ним присоединяются три скрывающихся от погони сноубордиста-фрирайдера. По приезду в Сочи, эти герои фильма «В спорте только девушки» заводят знакомство со спортсменками-американками.



    Выпущено: Россия / Среда Фетисов Филмс
    Продолжительность: 01:33:40
    Озвучивание: Оригинальное [лицензия]

    Файл
    Формат: MP4
    Качество: HDRip | КПК
    Видео: Н.264, 640x268 (2,40:1), 24.000 fps, 500 Kbps
    Звук: AAC LC, 48.0 KHz, 2 ch, 128 Kbps

    MI
    Общее
    Полное имя : C:UsersАлександрDesktopфильмV sporte tolko devushki.2014.ImperiaFilm.mp4
    Формат : MPEG-4
    Профиль формата : Base Media
    Идентификатор кодека : isom (isom/avc1/iso6)
    Размер файла : 421 Мбайт
    Продолжительность : 1 ч. 33 м.
    Режим общего битрейта : Переменный
    Общий поток : 628 Кбит/сек
    Дата кодирования : UTC 2017-06-07 08:43:54
    Дата пометки : UTC 2017-06-07 08:43:54

    Видео
    Идентификатор : 1
    Формат : AVC
    Формат/Информация : Advanced Video Codec
    Профиль формата : High@L4.1
    Параметр CABAC формата : Да
    Параметр ReFrames формата : 10 кадров
    Идентификатор кодека : avc1
    Идентификатор кодека/Информация : Advanced Video Coding
    Продолжительность : 1 ч. 33 м.
    Битрейт : 500 Кбит/сек
    Максимальный битрейт : 2157 Кбит/сек
    Ширина : 640 пикселей
    Высота : 268 пикселей
    Соотношение сторон : 2,40:1
    Режим частоты кадров : Постоянный
    Частота кадров : 24,000 кадра/сек
    Цветовое пространство : YUV
    Субдискретизация насыщенности : 4:2:0
    Битовая глубина : 8 бит
    Тип развёртки : Прогрессивная
    Бит/(Пиксели*Кадры) : 0.121
    Размер потока : 333 Мбайт (79%)
    Заголовок : 264@GPAC0.5.2-DEV-rev248-g39d5978-master
    Библиотека кодирования : x264 core 146 r2538 121396c
    Настройки программы : cabac=1 / ref=10 / deblock=1:-3:-3 / analyse=0x3:0x113 / me=umh / subme=11 / psy=1 / psy_rd=1.00:0.00 / mixed_ref=1 / me_range=48 / chroma_me=1 / trellis=2 / 8x8dct=1 / cqm=0 / deadzone=21,11 / fast_pskip=0 / chroma_qp_offset=-2 / threads=6 / lookahead_threads=1 / sliced_threads=0 / nr=0 / decimate=0 / interlaced=0 / bluray_compat=0 / constrained_intra=0 / bframes=10 / b_pyramid=2 / b_adapt=2 / b_bias=0 / direct=3 / weightb=1 / open_gop=0 / weightp=2 / keyint=240 / keyint_min=23 / scenecut=40 / intra_refresh=0 / rc_lookahead=40 / rc=2pass / mbtree=0 / bitrate=500 / ratetol=1.0 / qcomp=0.60 / qpmin=0 / qpmax=69 / qpstep=4 / cplxblur=20.0 / qblur=0.5 / vbv_maxrate=14000 / vbv_bufsize=14000 / nal_hrd=none / filler=0 / ip_ratio=1.40 / pb_ratio=1.30 / aq=1:1.00
    Дата кодирования : UTC 2017-06-07 08:43:54
    Дата пометки : UTC 2017-06-07 08:44:20

    Аудио
    Идентификатор : 2
    Формат : AAC
    Формат/Информация : Advanced Audio Codec
    Профиль формата : LC
    Идентификатор кодека : 40
    Продолжительность : 1 ч. 33 м.
    Вид битрейта : Переменный
    Битрейт : 128 Кбит/сек
    Максимальный битрейт : 197 Кбит/сек
    Каналы : 2 канала
    Расположение каналов : Front: L R
    Частота : 48,0 КГц
    Частота кадров : 46,875 кадров/сек (1024 spf)
    Метод сжатия : С потерями
    Размер потока : 85,6 Мбайт (20%)
    Дата кодирования : UTC 2017-06-07 05:39:51
    Дата пометки : UTC 2017-06-07 08:44:20
    Свернуть


    Скриншоты
    [screen]http://i95.fastpic.ru/big/2017/0607/5a/017e475b30bcdb59a5667194639b515a.jpg[/screen][screen]http://i95.fastpic.ru/big/2017/0607/95/5db2b45896c599acbbfb89f3cf21c895.jpg[/screen][screen]http://i93.fastpic.ru/big/2017/0607/fc/18e369e45914777fb9d572ff590bbdfc.jpg[/screen]

    [screen]http://i94.fastpic.ru/big/2017/0607/81/9cfb2a70661966120aaeb563f6ba7881.jpg[/screen][screen]http://i93.fastpic.ru/big/2017/0607/f9/abe3985c3be5b3d44cb34fefdb5a19f9.jpg[/screen][screen]http://i94.fastpic.ru/big/2017/0607/c7/b92285f3b2439f75b14bede4c4c6f7c7.jpg[/screen]Свернуть


    [img]http://i91.fastpic.ru/big/2017/0430/ee/411863a07f401662e4197d6d41f556ee.gif[/img][img]http://i91.fastpic.ru/big/2017/0430/f8/cb297ab242a60d92522abbf9810f00f8.gif[/img]
    Похожие раздачи Искать похожие
    Инструкция по скачиванию
     1  Качаем uTorrent версии 2.0 и выше
     2  После установки, жмем выше под постером на ссылку Скачать [MediaGet] или Скачать .torrent
     3  Открываем скачанный файл через соответствующий клиент: MediaGet или uTorrent
     4  Ждем пока подключатся участники
     5  Качаем
    Комментарии о  В спорте только девушки | HDRip 
    Ближайшее в кино
    Вверх