• Игры для PS4
  • Игры для PS3
  • Игры для XBOX360
  • Игры для PC
  • Игры для PS2
  • Игры для PSP
  • Для телефонов
  • Музыка
  • Книги/Журналы
  • Обои
  •  
    Опрос
    Удобен ли сайт в использовании?
      0
    • Очень удобен, все понятно1,1,false,300,full
    • Удобен1,2,false,300,full
    • Средне1,3,false,300,full
    • Неудобен, трудно ориентироваться1,4,false,300,full
    • Совсем неудобен1,5,false,300,full
    Статистика
    Загрузка...
    Мой слепой брат / My Blind Brother | HDRip
    Статус  Проверено
    В закладки
    Модератор: Max

    Мой слепой брат / My Blind Brother | HDRip [Фильмы 2016] скачать торрентом/torrent бесплатно

    Год выхода
    Язык
    Закачал
    Max | 07 июня 2017 в 14ч 39м 35с
    Раздел
    Отзывов
    0
    Раздают: 0 Качают: 0 Скачали: 0 Размер: 741.91 MB
    Инфо о раздаче | Благодарности |
    0/5
    0
    0 5 0
    Поддержи нас — расскажи друзьям!
    Orbitum
    Новый интернет-браузер Быстрее загружает сайты Экономит интернет—трафик Меняет оформление страницы ВК Блокирует всю рекламу на сайтах Загружает торренты как

    µTorrent

    клиент
    Объеденяет все твои чаты из соц. сетей в один Проигрывает твою музыку не заходя во ВКонтакте
    Скачать и многое другое... Подробности на сайте производителя
    Информация о фильме
    Название: Мой слепой брат
    Оригинальное название: My Blind Brother
    Год выхода: 2016
    Жанр: Драма, мелодрама, комедия
    Режиссер: Софи Гудхарт
    В ролях: Адам Скотт, Ник Кролл, Грег Виоланд, Чери МакКлейн, Билл Брэдшоу, Чарли Хьюсон, Марианн Нэйджел, Дженни Слейт, Келлен Бойл

    О фильме:
    Соперничество между двумя братьями, один из которых — слепой, достигнет апогея во время благотворительных соревнований по плаванию, когда им понравится одна и та же женщина...



    Страна: США
    Студия: Low Spark Films, Safehouse Pictures, Think Media Studios
    Продолжительность: 01:25:16
    Перевод: Любительский (многоголосый, закадровый) | GreenРай Studio

    Файл
    Кодек: XviD
    Качество: HDRip Источник
    Видео: 688x288 (2.39:1), 23.976 fps, XviD build 73 ~1079 kbps avg, 0.23 bit/pixel
    Звук: 48 kHz, MPEG Layer 3, 2 ch, ~128.00 kbps avg
    Субтитры: Отсутствуют

    Семпл

    [img]http://i96.fastpic.ru/big/2017/0607/97/126178a5d054bf2f53d6008f709ca097.gif[/img]
    MI
    General
    Complete name               : D:ТоррентыМои рипыМой слепой братMy.Blind.Brother.2016.P.HDRip.by shkiper.avi
    Format                      : AVI
    Format/Info                 : Audio Video Interleave
    File size                   : 742 MiB
    Duration                    : 1 h 25 min
    Overall bit rate            : 1 217 kb/s
    Writing application         : VirtualDubMod 1.5.10.3 | www.virtualdub-fr.org || (build 2550/release)
    Writing library             : VirtualDubMod build 2550/release

    Video
    ID                          : 0
    Format                      : MPEG-4 Visual
    Format profile              : Advanced Simple@L5
    Format settings, BVOP       : 1
    Format settings, QPel       : No
    Format settings, GMC        : No warppoints
    Format settings, Matrix     : Custom
    Codec ID                    : XVID
    Codec ID/Hint               : XviD
    Duration                    : 1 h 25 min
    Bit rate                    : 1 079 kb/s
    Width                       : 688 pixels
    Height                      : 288 pixels
    Display aspect ratio        : 2.40:1
    Frame rate                  : 23.976 (24000/1001) FPS
    Color space                 : YUV
    Chroma subsampling          : 4:2:0
    Bit depth                   : 8 bits
    Scan type                   : Progressive
    Compression mode            : Lossy
    Bits/(Pixel*Frame)          : 0.227
    Stream size                 : 658 MiB (89%)
    Writing library             : XviD 73

    Audio
    ID                          : 1
    Format                      : MPEG Audio
    Format version              : Version 1
    Format profile              : Layer 3
    Codec ID                    : 55
    Codec ID/Hint               : MP3
    Duration                    : 1 h 25 min
    Bit rate mode               : Constant
    Bit rate                    : 128 kb/s
    Channel(s)                  : 2 channels
    Sampling rate               : 48.0 kHz
    Compression mode            : Lossy
    Stream size                 : 78.1 MiB (11%)
    Alignment                   : Aligned on interleaves
    Interleave, duration        : 42  ms (1.00 video frame)
    Interleave, preload duratio : 504  ms
    Writing library             : LAME3.99r
    Encoding settings           : -m s -V 4 -q 2 -lowpass 17 -b 128


    Скриншоты
    [img]http://i95.fastpic.ru/big/2017/0607/fd/79a713b4d831e86187294ed76b8125fd.png[/img][img]http://i95.fastpic.ru/big/2017/0607/4a/ba051b13c5315ec9fb2178338fd01d4a.png[/img][img]http://i95.fastpic.ru/big/2017/0607/6d/be89bd16db1d432be6a1ae71ba70ee6d.png[/img][img]http://i95.fastpic.ru/big/2017/0607/6f/97b66f98a19656b0fd959fed60c9b66f.png[/img]
    Еще похожие »

    Как скачать?
    1. Качаем UTorrent версии 2.0 и выше отсюда
    2. После установки, жмем на ссылку Скачать торрент.
    3. Открываем его через utorrent.
    4. Ждем пока подключатся участники.
    5. Качаем.


    Комментарии о Мой слепой брат / My Blind Brother | HDRip
    Добавлять комментарии могут только зарегистрированные пользователи

    Зарегистрироваться или Войти


    Ближайшее в кино
    • Примадонна дата выхода 18 октября 2018Примадонна
      Дата выхода: 18 октября 2018
    • 885317|Ученик чудовища|18 октября 2018|200|300Ученик чудовища
      Дата выхода: 18 октября 2018
    • 472369|Хэллоуин|18 октября 2018|200|300Хэллоуин
      Дата выхода: 18 октября 2018
    • 1005852|Дикая жизнь|18 октября 2018|200|300Дикая жизнь
      Дата выхода: 18 октября 2018
    • 696499|Галвестон|18 октября 2018|200|300Галвестон
      Дата выхода: 18 октября 2018
    • 1111886|Лукас|18 октября 2018|200|300Лукас
      Дата выхода: 18 октября 2018
    • 1045555|Вечная жизнь Александра Христофорова|18 октября 2018|200|300Вечная жизнь Александра Христофорова
      Дата выхода: 18 октября 2018
    • 1112943|Шестой пост|18 октября 2018|200|300Шестой пост
      Дата выхода: 18 октября 2018
    • 1044626|Тайна магазина игрушек|18 октября 2018|200|300Тайна магазина игрушек
      Дата выхода: 18 октября 2018
    • 629086|Лягушонок Риббит|18 октября 2018|200|300Лягушонок Риббит
      Дата выхода: 18 октября 2018
    • 991817|Закат|18 октября 2018|200|300Закат
      Дата выхода: 18 октября 2018
    • 1020860|Безупречная жизнь|18 октября 2018|200|300Безупречная жизнь
      Дата выхода: 18 октября 2018
    • 968603|Зимние братья|18 октября 2018|200|300Зимние братья
      Дата выхода: 18 октября 2018
    • 1008554|Слоны могут играть в футбол|18 октября 2018|200|300Слоны могут играть в футбол
      Дата выхода: 18 октября 2018
    • 939290|Прогулка по Риму|18 октября 2018|200|300Прогулка по Риму
      Дата выхода: 18 октября 2018
    Вверх