• Игры для PS4
  • Игры для PS3
  • Игры для XBOX360
  • Игры для PC
  • Игры для PS2
  • Игры для PSP
  • Для телефонов
  • Музыка
  • Книги/Журналы
  • Обои
  •  
    Опрос
    Удобен ли сайт в использовании?
      0
    • Очень удобен, все понятно1,1,false,300,full
    • Удобен1,2,false,300,full
    • Средне1,3,false,300,full
    • Неудобен, трудно ориентироваться1,4,false,300,full
    • Совсем неудобен1,5,false,300,full
    Статистика
    Загрузка...
    Живое / Life | WEB-DL 1080p
    Статус  Проверено
    В закладки
    Модератор: Max

    Живое / Life | WEB-DL 1080p [Фильмы 2017] скачать торрентом/torrent бесплатно

    Год выхода
    Язык
    Закачал
    Аноним | 07 июня 2017 в 14ч 54м 22с
    Раздел
    Отзывов
    0
    Раздают: 0 Качают: 0 Скачали: 0 Размер: 4.22 GB
    Инфо о раздаче | Благодарности |
    0/5
    0
    0 5 0
    Поддержи нас — расскажи друзьям!
    Orbitum
    Новый интернет-браузер Быстрее загружает сайты Экономит интернет—трафик Меняет оформление страницы ВК Блокирует всю рекламу на сайтах Загружает торренты как

    µTorrent

    клиент
    Объеденяет все твои чаты из соц. сетей в один Проигрывает твою музыку не заходя во ВКонтакте
    Скачать и многое другое... Подробности на сайте производителя
    Живое / Life

    Страна: США [img]http://st.kp.yandex.net/images/flags/flag-1.gif[/img]
    Производство: Columbia Pictures, Skydance Productions, Sony Pictures Entertainment (SPE)
    Год выпуска: 2017
    Жанр:  ужасы, фантастика, триллер
    Продолжительность: 01:43:58

    Режиссер: Даниэль Эспиноса
    Авторы сценария: Ретт Риз, Пол Верник

    В ролях: Джейк Джилленхол, Ребекка Фергюсон, Райан Рейнольдс, Ольга Дыховичная, Эрион Бакаре, Хироюки Санада, Наоко Мори, Хиу Ун-Син

    Описание: Группа исследователей с международного космического корабля обнаруживает жизнь на Марсе. Они ещё не подозревают, какие события повлечёт за собой их открытие...



    Перевод: Профессиональный (многоголосый, закадровый) | iTunes
    Субтитры: русские (forced + full), английские (forced + full), украинские (full)

    Качество: WEB-DL 1080р
    Формат: M4V
    Видео кодек: AVC
    Аудио кодек: AAC | АС3
    Видео: 1920x798 (2.40:1), 23.976 fps, MPEG-4 AVC ~4 562 kbps avg
    Аудио №1: 48.0 kHz, Advanced Audio Codec LC, 2/0 (L,R) ch, ~157 kbps | RUS / Stereo
    Аудио №2: 48.0 kHz, Advanced Audio Codec LC, 2/0 (L,R) ch, ~157 kbps | ENG / Stereo
    Аудио №3: 48.0 kHz, Advanced Audio Codec LC, 2/0 (L,R) ch, ~156 kbps | UKR / Stereo
    Аудио №4: 48.0 kHz, AC3 Dolby Digital, 3/2 (L,C,R,l,r) + LFE ch, ~384 kbps | RUS / DD 5.1
    Аудио №5: 48.0 kHz, AC3 Dolby Digital, 3/2 (L,C,R,l,r) + LFE ch, ~384 kbps | ENG / DD 5.1
    Формат субтитров: Timed text

    Дата премьеры (мир): 18 марта 2017
    Дата премьеры (РФ): 23 марта 2017, «WDSSPR»

    Media Info
    General
    Complete name : Life.WEB-DL.1080p.m4v
    Format : MPEG-4
    Codec ID : M4V
    File size : 4.22 GiB
    Duration : 1h 43mn
    Overall bit rate mode : Variable
    Overall bit rate : 5 812 Kbps
    AppleStoreCatalogID : 1207067167
    Vendor : Apple:vendor_id:2017-966995
    ContentRating : mpaa|R|400|

    Video
    ID : 1
    Format : AVC
    Format/Info : Advanced Video Codec
    Format profile : High@L4
    Format settings, CABAC : Yes
    Format settings, ReFrames : 5 frames
    Codec ID : avc1
    Codec ID/Info : Advanced Video Coding
    Duration : 1h 43mn
    Bit rate : 4 562 Kbps
    Width : 1 920 pixels
    Height : 798 pixels
    Display aspect ratio : 2.40:1
    Frame rate mode : Variable
    Frame rate : 23.976 fps
    Minimum frame rate : 23.810 fps
    Maximum frame rate : 24.390 fps
    Color space : YUV
    Chroma subsampling : 4:2:0
    Bit depth : 8 bits
    Scan type : Progressive
    Bits/(Pixel*Frame) : 0.124
    Stream size : 3.31 GiB (78%)
    Title : Main Program
    Language : English
    Encoded date : UTC 2017-06-06 21:46:16
    Tagged date : UTC 2017-06-06 21:46:57
    Color range : Limited
    Color primaries : BT.709
    Transfer characteristics : BT.709
    Matrix coefficients : BT.709

    Audio #1
    ID : 2
    Format : AAC
    Format/Info : Advanced Audio Codec
    Format profile : LC
    Codec ID : 40
    Duration : 1h 43mn
    Bit rate mode : Variable
    Bit rate : 157 Kbps
    Maximum bit rate : 263 Kbps
    Channel(s) : 2 channels
    Channel positions : Front: L R
    Sampling rate : 48.0 KHz
    Compression mode : Lossy
    Stream size : 117 MiB (3%)
    Title : Russian Stereo
    Language : Russian
    Encoded date : UTC 2017-06-06 21:46:16
    Tagged date : UTC 2017-06-06 21:46:25

    Audio #2
    ID : 3
    Format : AAC
    Format/Info : Advanced Audio Codec
    Format profile : LC
    Codec ID : 40
    Duration : 1h 43mn
    Bit rate mode : Variable
    Bit rate : 157 Kbps
    Maximum bit rate : 259 Kbps
    Channel(s) : 2 channels
    Channel positions : Front: L R
    Sampling rate : 48.0 KHz
    Compression mode : Lossy
    Stream size : 117 MiB (3%)
    Title : English Stereo
    Language : English
    Encoded date : UTC 2017-06-06 21:46:16
    Tagged date : UTC 2017-06-06 21:46:25

    Audio #3
    ID : 4
    Format : AAC
    Format/Info : Advanced Audio Codec
    Format profile : LC
    Codec ID : 40
    Duration : 1h 43mn
    Bit rate mode : Variable
    Bit rate : 156 Kbps
    Maximum bit rate : 277 Kbps
    Channel(s) : 2 channels
    Channel positions : Front: L R
    Sampling rate : 44.1 KHz
    Compression mode : Lossy
    Stream size : 116 MiB (3%)
    Title : Ukrainian Stereo
    Language : Ukrainian
    Encoded date : UTC 2017-06-06 21:46:16
    Tagged date : UTC 2017-06-06 21:46:24

    Audio #4
    ID : 5
    Format : AC-3
    Format/Info : Audio Coding 3
    Mode extension : CM (complete main)
    Format settings, Endianness : Big
    Codec ID : ac-3
    Duration : 1h 43mn
    Bit rate mode : Constant
    Bit rate : 384 Kbps
    Channel(s) : 6 channels
    Channel positions : Front: L C R, Side: L R, LFE
    Sampling rate : 48.0 KHz
    Bit depth : 16 bits
    Compression mode : Lossy
    Stream size : 286 MiB (7%)
    Title : Russian DD 5.1
    Language : Russian
    Encoded date : UTC 2017-06-06 21:46:16
    Tagged date : UTC 2017-06-06 21:46:23

    Audio #5
    ID : 6
    Format : AC-3
    Format/Info : Audio Coding 3
    Mode extension : CM (complete main)
    Format settings, Endianness : Big
    Codec ID : ac-3
    Duration : 1h 43mn
    Bit rate mode : Constant
    Bit rate : 384 Kbps
    Channel(s) : 6 channels
    Channel positions : Front: L C R, Side: L R, LFE
    Sampling rate : 48.0 KHz
    Bit depth : 16 bits
    Compression mode : Lossy
    Stream size : 286 MiB (7%)
    Title : English DD 5.1
    Language : English
    Encoded date : UTC 2017-06-06 21:46:16
    Tagged date : UTC 2017-06-06 21:46:23

    Text #1
    ID : 7
    Format : Timed Text
    Muxing mode : sbtl
    Codec ID : tx3g
    Duration : 1h 43mn
    Bit rate mode : Variable
    Bit rate : 2 bps
    Stream size : 1.63 KiB (0%)
    Title : Russian forced
    Language : Russian
    Encoded date : UTC 2017-06-06 21:46:16
    Tagged date : UTC 2017-06-06 21:46:23

    Text #2
    ID : 8
    Format : Timed Text
    Muxing mode : sbtl
    Codec ID : tx3g
    Duration : 1h 11mn
    Bit rate mode : Variable
    Bit rate : 1 bps
    Stream size : 342 Bytes (0%)
    Title : English forced
    Language : English
    Encoded date : UTC 2017-06-06 21:46:16
    Tagged date : UTC 2017-06-06 21:46:23

    Text #3
    ID : 9
    Format : Timed Text
    Muxing mode : sbtl
    Codec ID : tx3g
    Duration : 1h 43mn
    Bit rate mode : Variable
    Bit rate : 77 bps
    Stream size : 58.5 KiB (0%)
    Title : Russian full
    Language : Russian
    Encoded date : UTC 2017-06-06 21:46:16
    Tagged date : UTC 2017-06-06 21:46:23

    Text #4
    ID : 10
    Format : Timed Text
    Muxing mode : sbtl
    Codec ID : tx3g
    Duration : 1h 33mn
    Bit rate mode : Variable
    Bit rate : 51 bps
    Stream size : 34.9 KiB (0%)
    Title : English full
    Language : English
    Encoded date : UTC 2017-06-06 21:46:16
    Tagged date : UTC 2017-06-06 21:46:23

    Text #5
    ID : 11
    Format : Timed Text
    Muxing mode : sbtl
    Codec ID : tx3g
    Duration : 1h 43mn
    Bit rate mode : Variable
    Bit rate : 73 bps
    Stream size : 55.4 KiB (0%)
    Title : Ukrainian full
    Language : Ukrainian
    Encoded date : UTC 2017-06-06 21:46:16
    Tagged date : UTC 2017-06-06 21:46:23


    Скриншоты
    [img]http://i93.fastpic.ru/big/2017/0607/f3/c225fb0ece0aa4c932e3dd3cb6721ff3.png[/img][img]http://i94.fastpic.ru/big/2017/0607/b8/e4135736354be87d16dc13b913f9d3b8.png[/img][img]http://i96.fastpic.ru/big/2017/0607/8b/90d1fbe8112874979dc477c0408ee78b.png[/img][img]http://i95.fastpic.ru/big/2017/0607/cc/fea0a0ab02b8039233fa99b9863e01cc.png[/img]


    Дополнительная информация: релиз подготовлен для просмотра на Apple TV, iPad, iPhone, iPod Touch.
    Для просмотра данного релиза на компьютере с ОС Windows рекомендуется использовать VLC media player
    Еще похожие »

    Как скачать?
    1. Качаем UTorrent версии 2.0 и выше отсюда
    2. После установки, жмем на ссылку Скачать торрент.
    3. Открываем его через utorrent.
    4. Ждем пока подключатся участники.
    5. Качаем.


    Комментарии о Живое / Life | WEB-DL 1080p
    Добавлять комментарии могут только зарегистрированные пользователи

    Зарегистрироваться или Войти


    Ближайшее в кино
    • Примадонна дата выхода 18 октября 2018Примадонна
      Дата выхода: 18 октября 2018
    • 885317|Ученик чудовища|18 октября 2018|200|300Ученик чудовища
      Дата выхода: 18 октября 2018
    • 472369|Хэллоуин|18 октября 2018|200|300Хэллоуин
      Дата выхода: 18 октября 2018
    • 1005852|Дикая жизнь|18 октября 2018|200|300Дикая жизнь
      Дата выхода: 18 октября 2018
    • 696499|Галвестон|18 октября 2018|200|300Галвестон
      Дата выхода: 18 октября 2018
    • 1111886|Лукас|18 октября 2018|200|300Лукас
      Дата выхода: 18 октября 2018
    • 1045555|Вечная жизнь Александра Христофорова|18 октября 2018|200|300Вечная жизнь Александра Христофорова
      Дата выхода: 18 октября 2018
    • 1112943|Шестой пост|18 октября 2018|200|300Шестой пост
      Дата выхода: 18 октября 2018
    • 1044626|Тайна магазина игрушек|18 октября 2018|200|300Тайна магазина игрушек
      Дата выхода: 18 октября 2018
    • 629086|Лягушонок Риббит|18 октября 2018|200|300Лягушонок Риббит
      Дата выхода: 18 октября 2018
    • 991817|Закат|18 октября 2018|200|300Закат
      Дата выхода: 18 октября 2018
    • 1020860|Безупречная жизнь|18 октября 2018|200|300Безупречная жизнь
      Дата выхода: 18 октября 2018
    • 968603|Зимние братья|18 октября 2018|200|300Зимние братья
      Дата выхода: 18 октября 2018
    • 1008554|Слоны могут играть в футбол|18 октября 2018|200|300Слоны могут играть в футбол
      Дата выхода: 18 октября 2018
    • 939290|Прогулка по Риму|18 октября 2018|200|300Прогулка по Риму
      Дата выхода: 18 октября 2018
    Вверх