• Игры для PS4
  • Игры для PS3
  • Игры для XBOX360
  • Игры для PC
  • Игры для PS2
  • Игры для PSP
  • Для телефонов
  • Музыка
  • Книги / Журналы
  • Обои
  • Опрос
    Откуда Вы о нас узнали?
      0
    • От знакомых2,1,false,300,full
    • Из социальных сетей2,2,false,300,full
    • Из поисковых систем2,3,false,300,full
    • Другое2,4,false,300,full
    Статистика
    Всего онлайн -
    Гостей -
    Пользователей -
    Короли трекера
    Благодарности () Закрыть
    Информация о фильме
    Название: Рождественская подмена
    Оригинальное название: Christmas Trade
    Год выхода: 2015
    Жанр: комедия, семейный
    Режиссер: Джоэл Соуса
    В ролях: Уильям Болдуин, Дениз Ричардс, Майкл Кэмпион, Том Арнольд, Дженнифер Грант, Дезри Абейта, Энн Стедман, Виктор Браун, Аманда Конлон, Камрин Саттон

    О фильме:
    После смерти мамы одиннадцатилетний Робби Тейлор живет со своим отцом в Лос-Анджелесе. Его отец работает в адвокатской фирме, специализирующейся на недвижимости. У сына и отца разные представления о том, что такое благополучная семья. Если у Тейлора-старшего понятие благополучия определяется финансами, то для сына, у которого масса проблем в школе, да к тому же страстное желание завести себе четвероногого питомца, были другие оценки этого понятия. Однако накануне Рождества наши герои меняются местами в полном смысле этого слова. Теперь каждый из них может посмотреть на ситуацию с противоположной стороны…

    [img]http://i65.fastpic.ru/big/2015/1119/11/721286271919d6408115461a89aadb11.gif[/img]     [img]http://i83.fastpic.ru/big/2016/1001/64/e971ae22580fd7d9031bc5669f213d64.gif[/img]     [img]http://i80.fastpic.ru/big/2016/0508/ce/cd89b8e199dc816f52dfbe8a657767ce.gif[/img]

    Производство: США / Brand Inc. Entertainment
    Продолжительность: 01:39:47
    Перевод: профессиональный  (многоголосый закадровый) [официальный звук]

    Файл
    Качество: HDRip
    Формат: AVI
    Видео: XviD, 720x400 (16:9), 23.976 fps, 1609 kbps, 0.233 bit/pixel
    Аудио #1: русский, AC3 2.0, 48 kHz, 192 kbps
    Аудио #2: английский, AC3 5.1, 48 kHz, 384 kbps

    MediaInfo
    Формат                                   : AVI
    Формат/Информация                        : Audio Video Interleave
    Размер файла                             : 1,53 Гбайт
    Продолжительность                        : 1 ч. 39 м.
    Общий поток                              : 2199 Кбит/сек
    Программа кодирования                    : VirtualDubModRus 1.5.10.2 (build 2542/release)
    Библиотека кодирования                   : VirtualDubMod build 2542/release

    Видео
    Идентификатор                            : 0
    Формат                                   : MPEG-4 Visual
    Профиль формата                          : Advanced Simple@L5
    Параметр BVOP формата                    : 2
    Параметр QPel формата                    : Нет
    Параметр GMC формата                     : Без точки перехода
    Параметр матрицы формата                 : Default (H.263)
    Режим смешивания                         : Сжатый битовый поток
    Идентификатор кодека                     : XVID
    Идентификатор кодека/Подсказка           : XviD
    Продолжительность                        : 1 ч. 39 м.
    Битрейт                                  : 1609 Кбит/сек
    Ширина                                   : 720 пикселей
    Высота                                   : 400 пикселей
    Соотношение сторон                       : 16:9
    Частота кадров                           : 23,976 кадра/сек
    Цветовое пространство                    : YUV
    Субдискретизация насыщенности            : 4:2:0
    Битовая глубина                          : 8 бит
    Тип развёртки                            : Прогрессивная
    Метод сжатия                             : С потерями
    Бит/(Пиксели*Кадры)                      : 0.233
    Размер потока                            : 1,12 Гбайт (73%)
    Библиотека кодирования                   : XviD 66

    Аудио #1
    Идентификатор                            : 1
    Формат                                   : AC-3
    Формат/Информация                        : Audio Coding 3
    Расширение режима                        : CM (complete main)
    Параметр Endianness формата              : Big
    Идентификатор кодека                     : 2000
    Продолжительность                        : 1 ч. 39 м.
    Вид битрейта                             : Постоянный
    Битрейт                                  : 192 Кбит/сек
    Каналы                                   : 2 канала
    Расположение каналов                     : Front: L R
    Частота                                  : 48,0 КГц
    Метод сжатия                             : С потерями
    Размер потока                            : 137 Мбайт (9%)
    Выравнивание                             : Разделение по промежуткам
    Продолжительность промежутка             : 42  мс. (1,00 видеокадр)
    Время предзагрузки промежутка            : 500  мс.

    Аудио #2
    Идентификатор                            : 2
    Формат                                   : AC-3
    Формат/Информация                        : Audio Coding 3
    Расширение режима                        : CM (complete main)
    Параметр Endianness формата              : Big
    Идентификатор кодека                     : 2000
    Продолжительность                        : 1 ч. 39 м.
    Вид битрейта                             : Постоянный
    Битрейт                                  : 384 Кбит/сек
    Каналы                                   : 6 каналов
    Расположение каналов                     : Front: L C R, Side: L R, LFE
    Частота                                  : 48,0 КГц
    Метод сжатия                             : С потерями
    Размер потока                            : 274 Мбайт (17%)
    Выравнивание                             : Соединение по промежуткам
    Продолжительность промежутка             : 42  мс. (1,00 видеокадр)
    Время предзагрузки промежутка            : 512  мс.
    Свернуть


    Скриншоты
    [screen]http://i95.fastpic.ru/big/2017/0606/e9/62bfdcba2f6456152f4a339e81c1e6e9.jpg[/screen][screen]http://i95.fastpic.ru/big/2017/0606/ac/d35d1f4c8c4221ae52c8dbab5666c4ac.jpg[/screen][screen]http://i95.fastpic.ru/big/2017/0606/8b/b9ec964059e2e0cd537aa0424da40c8b.jpg[/screen][screen]http://i95.fastpic.ru/big/2017/0606/6f/96e63a9f6146648d51cb85a024cb326f.jpg[/screen][screen]http://i95.fastpic.ru/big/2017/0606/72/0da949c30f58175b410d31cff2ca5672.jpg[/screen][screen]http://i95.fastpic.ru/big/2017/0606/ad/e7ba53a5ba24ebf97689c839eb3511ad.jpg[/screen][screen]http://i95.fastpic.ru/big/2017/0606/dd/76e53a04a2fe809af0e1602e3a0b4cdd.jpg[/screen][screen]http://i95.fastpic.ru/big/2017/0606/3a/3ee8ee73e7e5795f4b70f5787d269b3a.jpg[/screen][screen]http://i95.fastpic.ru/big/2017/0606/13/6bc26fcfc7db806383311ed6ddb74213.jpg[/screen][screen]http://i95.fastpic.ru/big/2017/0606/ea/9612214ec1e2aaae3e82f588a190bbea.jpg[/screen][screen]http://i95.fastpic.ru/big/2017/0606/aa/3916f379b48abcbaed79f66d09f996aa.jpg[/screen][screen]http://i95.fastpic.ru/big/2017/0606/86/aae14d12b000f930b1a4b20bb72b7886.jpg[/screen][screen]http://i95.fastpic.ru/big/2017/0606/78/be9ee458c408e9d14d50fc3fdc0e3b78.jpg[/screen][screen]http://i95.fastpic.ru/big/2017/0606/02/cc501100cce3472007adb6da3a0e2602.jpg[/screen][screen]http://i95.fastpic.ru/big/2017/0606/3b/a5602d467c8a813e232162893773d33b.jpg[/screen][screen]http://i95.fastpic.ru/big/2017/0606/df/b07aec7f4743e5144fb47f8a5bb656df.jpg[/screen][screen]http://i95.fastpic.ru/big/2017/0606/13/4089a8397d0d19b9e07521f8f2be3613.jpg[/screen][screen]http://i95.fastpic.ru/big/2017/0606/39/3ab8851c4eca9d33ea10196ff1750d39.jpg[/screen][screen]http://i95.fastpic.ru/big/2017/0606/2f/7b12af7606432152db86add2a8bdec2f.jpg[/screen][screen]http://i95.fastpic.ru/big/2017/0606/37/a1355cd4acaf69d559e60365e7fd2b37.jpg[/screen]Свернуть
    Инструкция по скачиванию
     1  Качаем uTorrent версии 2.0 и выше
     2  После установки, жмем выше под постером на ссылку Скачать [MediaGet] или Скачать .torrent
     3  Открываем скачанный файл через соответствующий клиент: MediaGet или uTorrent
     4  Ждем пока подключатся участники
     5  Качаем
    Комментарии о  Рождественская подмена / Christmas Trade | HDRip 
    Ближайшее в кино
    Вверх