• Игры для PS4
  • Игры для PS3
  • Игры для XBOX360
  • Игры для PC
  • Игры для PS2
  • Игры для PSP
  • Для телефонов
  • Музыка
  • Книги / Журналы
  • Обои
  • Опрос
    Откуда Вы о нас узнали?
      0
    • От знакомых2,1,false,300,full
    • Из социальных сетей2,2,false,300,full
    • Из поисковых систем2,3,false,300,full
    • Другое2,4,false,300,full
    Статистика
    Всего онлайн -
    Гостей -
    Пользователей -
    Короли трекера
    Благодарности () Закрыть
    Информация о фильме
    Название: Авторитет / Сок / Закваска
    Оригинальное название: Juice
    Год выхода: 1992
    Жанр: Триллер, драма, криминал
    Режиссер: Эрнест Р. Дикерсон
    В ролях: Омар Эппс, Тупак Шакур, Жермен Хагги Хопкинс, Халил Кейн, Синди Херрон, Винсент Лареска, Сэмюэл Л. Джексон, Джордж Гор II, Грэйс Гарлэнд, Куин Латифа, Бруклин Харрис, Виктор Кампос, Эрик Пэйн, Шэрон Кук, Дариен Берри, Мэгги Раш, Флекс Александр, Рони Клэнтон, Майкл Бадалукко, Жак Дикерсон

    О фильме:
    Фильм рассказывает о тяжелой жизни черных людей в Гарлеме. Четверо подростков ведут преступную жизнь и все казалось бы «хорошо», но их жизнь меняется после неудачного ограбления магазина.


    Страна: США
    Студия: Island World
    Продолжительность: 01:34:41
    Перевод: Профессиональный (двухголосый закадровый) [НТВ+], любительский (одноголосый закадровый)

    -За одноголосый перевод спасибо Deserved, чистый голос которого был положен на оригинальный ac3.
    -За двухголосый перевод канала НТВ большое спасибо bigfoothart. Дорожка была отреставрирована, теперь там полноценная стерео панорама.

    Файл
    Кодек: x264
    Качество: BDRip 1080p
    Видео: MPEG-4 AVC, 13400 Кбит/с, 1920x1080, 23.976 кадр/с
    Звук:
    Аудио#1: AC3, 48.0 khz, 2 ch, 384 kbps - DVO, [НТВ+]
    Аудио#2: AC3, 48.0 khz, 2 ch, 384 kbps - VO
    Аудио#3: DTS, 48.0 khz, 6 ch, 1509 kbps - Оригинал (английский)
    Субтитры: Английские (обычные), английские (для слабослышащих)

    MediaInfo
    General
    Unique ID                                : 212150062563681766303156186824243519547 (0x9F9A9DA658CD6DA19D7EF1B514BDA03B)
    Complete name                            : I:Juice.1992.BDRip.1080p.x264.2xRus.Eng.mkv
    Format                                   : Matroska
    Format version                           : Version 4 / Version 2
    File size                                : 10.3 GiB
    Duration                                 : 1h 34mn
    Overall bit rate                         : 15.6 Mbps
    Encoded date                             : UTC 2017-06-07 09:55:12
    Writing application                      : mkvmerge v8.3.0 ("Over the Horizon") 32bit
    Writing library                          : libebml v1.3.1 + libmatroska v1.4.2
    DURATION                                 : 01:34:44.640000000
    NUMBER_OF_FRAMES                         : 177645
    NUMBER_OF_BYTES                          : 272862720
    _STATISTICS_WRITING_APP                  : mkvmerge v8.3.0 ("Over the Horizon") 32bit
    _STATISTICS_WRITING_DATE_UTC             : 2017-06-07 09:55:12
    _STATISTICS_TAGS                         : BPS DURATION NUMBER_OF_FRAMES NUMBER_OF_BYTES
    Attachment                               : Yes / Yes

    Video
    ID                                       : 1
    Format                                   : AVC
    Format/Info                              : Advanced Video Codec
    Format profile                           : High@L4.1
    Format settings, CABAC                   : Yes
    Format settings, ReFrames                : 4 frames
    Codec ID                                 : V_MPEG4/ISO/AVC
    Duration                                 : 1h 34mn
    Bit rate                                 : 13.4 Mbps
    Width                                    : 1 920 pixels
    Height                                   : 1 080 pixels
    Display aspect ratio                     : 16:9
    Frame rate mode                          : Constant
    Frame rate                               : 23.976 fps
    Color space                              : YUV
    Chroma subsampling                       : 4:2:0
    Bit depth                                : 8 bits
    Scan type                                : Progressive
    Bits/(Pixel*Frame)                       : 0.269
    Stream size                              : 8.63 GiB (83%)
    Writing library                          : x264 core 150 r2833 df79067
    Encoding settings                        : cabac=1 / ref=4 / deblock=1:-3:-3 / analyse=0x3:0x113 / me=umh / subme=8 / psy=1 / psy_rd=1.15:0.00 / mixed_ref=1 / me_range=32 / chroma_me=1 / trellis=2 / 8x8dct=1 / cqm=0 / deadzone=21,11 / fast_pskip=1 / chroma_qp_offset=-2 / threads=24 / lookahead_threads=4 / sliced_threads=0 / nr=0 / decimate=1 / interlaced=0 / bluray_compat=0 / constrained_intra=0 / bframes=3 / b_pyramid=2 / b_adapt=2 / b_bias=0 / direct=3 / weightb=1 / open_gop=0 / weightp=2 / keyint=240 / keyint_min=24 / scenecut=40 / intra_refresh=0 / rc_lookahead=50 / rc=2pass / mbtree=1 / bitrate=13365 / ratetol=1.0 / qcomp=0.60 / qpmin=0 / qpmax=69 / qpstep=4 / cplxblur=20.0 / qblur=0.5 / ip_ratio=1.40 / aq=3:0.75
    Language                                 : English
    Default                                  : Yes
    Forced                                   : No
    DURATION                                 : 01:34:40.884000000
    NUMBER_OF_FRAMES                         : 136205
    NUMBER_OF_BYTES                          : 9482699101
    _STATISTICS_WRITING_APP                  : mkvmerge v8.3.0 ("Over the Horizon") 32bit
    _STATISTICS_WRITING_DATE_UTC             : 2017-06-07 09:55:12
    _STATISTICS_TAGS                         : BPS DURATION NUMBER_OF_FRAMES NUMBER_OF_BYTES

    Audio #1
    ID                                       : 2
    Format                                   : AC-3
    Format/Info                              : Audio Coding 3
    Mode extension                           : CM (complete main)
    Format settings, Endianness              : Big
    Codec ID                                 : A_AC3
    Duration                                 : 1h 34mn
    Bit rate mode                            : Constant
    Bit rate                                 : 384 Kbps
    Channel(s)                               : 2 channels
    Channel positions                        : Front: L R
    Sampling rate                            : 48.0 KHz
    Bit depth                                : 16 bits
    Compression mode                         : Lossy
    Stream size                              : 260 MiB (2%)
    Title                                    : Профессиональный двухголосый, НТВ+
    Language                                 : Russian
    Default                                  : Yes
    Forced                                   : No
    DURATION                                 : 01:34:40.886000000
    NUMBER_OF_FRAMES                         : 532583
    NUMBER_OF_BYTES                          : 1071556996
    _STATISTICS_WRITING_APP                  : mkvmerge v8.3.0 ("Over the Horizon") 32bit
    _STATISTICS_WRITING_DATE_UTC             : 2017-06-07 09:55:12
    _STATISTICS_TAGS                         : BPS DURATION NUMBER_OF_FRAMES NUMBER_OF_BYTES

    Audio #2
    ID                                       : 3
    Format                                   : AC-3
    Format/Info                              : Audio Coding 3
    Mode extension                           : CM (complete main)
    Format settings, Endianness              : Big
    Codec ID                                 : A_AC3
    Duration                                 : 1h 34mn
    Bit rate mode                            : Constant
    Bit rate                                 : 384 Kbps
    Channel(s)                               : 2 channels
    Channel positions                        : Front: L R
    Sampling rate                            : 48.0 KHz
    Bit depth                                : 16 bits
    Compression mode                         : Lossy
    Stream size                              : 260 MiB (2%)
    Title                                    : Любительский одноголосый
    Language                                 : Russian
    Default                                  : No
    Forced                                   : No
    DURATION                                 : 01:28:50.200000000
    NUMBER_OF_FRAMES                         : 1144
    NUMBER_OF_BYTES                          : 41805
    _STATISTICS_WRITING_APP                  : mkvmerge v8.3.0 ("Over the Horizon") 32bit
    _STATISTICS_WRITING_DATE_UTC             : 2017-06-07 09:55:12
    _STATISTICS_TAGS                         : BPS DURATION NUMBER_OF_FRAMES NUMBER_OF_BYTES

    Audio #3
    ID                                       : 4
    Format                                   : DTS
    Format/Info                              : Digital Theater Systems
    Mode                                     : 16
    Format settings, Endianness              : Big
    Codec ID                                 : A_DTS
    Duration                                 : 1h 34mn
    Bit rate mode                            : Constant
    Bit rate                                 : 1 509 Kbps
    Channel(s)                               : 6 channels
    Channel positions                        : Front: L C R, Side: L R, LFE
    Sampling rate                            : 48.0 KHz
    Bit depth                                : 24 bits
    Compression mode                         : Lossy
    Stream size                              : 1 023 MiB (10%)
    Title                                    : Original
    Language                                 : English
    Default                                  : No
    Forced                                   : No
    DURATION                                 : 01:31:23.937000000
    NUMBER_OF_FRAMES                         : 1266
    NUMBER_OF_BYTES                          : 44951
    _STATISTICS_WRITING_APP                  : mkvmerge v8.3.0 ("Over the Horizon") 32bit
    _STATISTICS_WRITING_DATE_UTC             : 2017-06-07 09:55:12
    _STATISTICS_TAGS                         : BPS DURATION NUMBER_OF_FRAMES NUMBER_OF_BYTES

    Text #1
    ID                                       : 5
    Format                                   : UTF-8
    Codec ID                                 : S_TEXT/UTF8
    Codec ID/Info                            : UTF-8 Plain Text
    Language                                 : English
    Default                                  : No
    Forced                                   : No

    Text #2
    ID                                       : 6
    Format                                   : UTF-8
    Codec ID                                 : S_TEXT/UTF8
    Codec ID/Info                            : UTF-8 Plain Text
    Title                                    : SDH
    Language                                 : English
    Default                                  : No
    Forced                                   : No

    Menu
    00:00:00.000                             : en:00:00:00.000
    00:02:40.369                             : en:00:02:40.369
    00:20:43.325                             : en:00:20:43.325
    00:29:43.865                             : en:00:29:43.865
    00:33:41.269                             : en:00:33:41.269
    00:41:07.799                             : en:00:41:07.799
    00:46:46.053                             : en:00:46:46.053
    00:49:22.459                             : en:00:49:22.459
    00:57:53.095                             : en:00:57:53.095
    01:13:07.633                             : en:01:13:07.633
    01:21:50.697                             : en:01:21:50.697

    Свернуть


    Инструкция по скачиванию
     1  Качаем uTorrent версии 2.0 и выше
     2  После установки, жмем выше под постером на ссылку Скачать [MediaGet] или Скачать .torrent
     3  Открываем скачанный файл через соответствующий клиент: MediaGet или uTorrent
     4  Ждем пока подключатся участники
     5  Качаем
    Комментарии о  Авторитет / Сок / Закваска / Juice | BDRip 1080p 
    Ближайшее в кино
    Вверх