• Игры для PS4
  • Игры для PS3
  • Игры для XBOX360
  • Игры для PC
  • Игры для PS2
  • Игры для PSP
  • Для телефонов
  • Музыка
  • Книги/Журналы
  • Обои
  •  
    Опрос
    Откуда Вы о нас узнали?
      0
    • От знакомых2,1,false,300,full
    • Из социальных сетей2,2,false,300,full
    • Из поисковых систем2,3,false,300,full
    • Другое2,4,false,300,full
    Статистика
    Загрузка...
    Белый клык 2: Легенда о белом волке / White Fang 2: Myth of the White Wolf | WEB-DL 720p
    Статус  Проверено
    В закладки
    Модератор: Max

    Белый клык 2: Легенда о белом волке / White Fang 2: Myth of the White Wolf | WEB-DL 720p [Фильмы 1994] скачать торрентом/torrent бесплатно

    Год выхода
    Язык
    Закачал
    Аноним | 07 июня 2017 в 15ч 38м 36с
    Раздел
    Отзывов
    0
    Раздают: 13 Качают: 1 Скачали: 15 Размер: 3.38 GB
    Инфо о раздаче | Благодарности |
    0/5
    0
    0 5 0
    Поддержи нас — расскажи друзьям!
    Orbitum
    Новый интернет-браузер Быстрее загружает сайты Экономит интернет—трафик Меняет оформление страницы ВК Блокирует всю рекламу на сайтах Загружает торренты как

    µTorrent

    клиент
    Объеденяет все твои чаты из соц. сетей в один Проигрывает твою музыку не заходя во ВКонтакте
    Скачать и многое другое... Подробности на сайте производителя
    Информация о фильме
    Название: Белый клык 2: Легенда о белом волке
    Оригинальное название: White Fang 2: Myth of the White Wolf
    Год выхода: 1994
    Жанр:  приключения, семейный
    Режиссер: Кен Олин
    В ролях: Скотт Бэйрстоу, Чармэйн Крэйг, Аль Хэррингтон, Энтони Руйвивар, Виктория Расимо, Альфред Молина, Пол Койер, Джеффри Льюис, Мэттью Коулз, Вудроу В. Моррисон

    Описание: На Диком Западе издавна существовала легенда о белом волке. Никто не мог разгадать этот миф. Но когда древнее индейское племя попало в беду, и золотоискатель Генри со своим псом по кличке Белый Клык встал на его защиту, таинственное предание воплощается в реальность…



    Страна: США
    Продолжительность: 01:46:10
    Перевод #1: Профессиональный (Многоголосый, Закадровый) (iTunes Russia)
    Перевод #2: Английский (Оригинал)
    Перевод #3: Английский (Оригинал)

    Файл
    Формат: MKV
    Качество: WEB-DL 720p (Источник: iTunes USA/RUS)
    Видео: 1280x688 (1.85:1), 23.976 fps, 3861 kbps, 0.183 bit/pixel
    Аудио #1: AAC, 2 ch, 106 kbps (Многоголосый iTunes Russia)
    Аудио #2: AAC, 2 ch, 176 kbps (Английский Оригинал)
    Аудио #3: AC-3, 6 ch, 384 kbps (Английский Оригинал)
    Субтитры: Английские (SDH)
    Навигация: Есть
    Скачать: Семпл

    Скриншоты
    [img]http://i94.fastpic.ru/big/2017/0607/74/e27542a89dc06993a4a6bb7927214174.png[/img][img]http://i94.fastpic.ru/big/2017/0607/98/a40e5aab46ce3ce46c9f1b47e0417e98.png[/img][img]http://i94.fastpic.ru/big/2017/0607/32/6f330fe8a9efdfa582edf9538474ca32.png[/img][img]http://i94.fastpic.ru/big/2017/0607/7f/5bb25ecefc38b7935af48e61f673167f.png[/img]
    [img]http://i94.fastpic.ru/big/2017/0607/7d/58e5be17e0260cad539df613b44de17d.png[/img][img]http://i94.fastpic.ru/big/2017/0607/f4/254d40c2b7d4011e4334e220359a86f4.png[/img][img]http://i94.fastpic.ru/big/2017/0607/13/a4d528a9e632eeb5819b0670dcaee313.png[/img][img]http://i94.fastpic.ru/big/2017/0607/79/b54ab0974524f808a85571fc7fc40879.png[/img]


    MediaInfo
    General
    Unique ID                      : 207729891651242649734169972214474554903 (0x9C475265E950F6ECAB5EFDCA57C93E17)
    Complete name                  : White.Fang.2.Myth.of.the.White.Wolf.1994.WEB.DL.720p.P.mkv
    Format                         : Matroska
    Format version                 : Version 2
    File size                      : 3.38 GiB
    Duration                       : 1h 46mn
    Overall bit rate               : 4 557 Kbps
    Encoded date                   : UTC 2017-06-07 10:04:05
    Writing application            : mkvmerge v5.6.0 ("Kenya Kane") built on May 27 2012 16:44:04
    Writing library                : libebml v1.2.3 + libmatroska v1.3.0
    Attachements                   : Cover 1.jpg / Cover 2.jpg

    Video
    ID                             : 1
    Format                         : AVC
    Format/Info                    : Advanced Video Codec
    Format profile                 : High@L3.1
    Format settings, CABAC         : No
    Format settings, ReFrames      : 2 frames
    Format settings, GOP           : N=1
    Codec ID                       : V_MPEG4/ISO/AVC
    Duration                       : 1h 46mn
    Bit rate                       : 3 861 Kbps
    Width                          : 1 280 pixels
    Height                         : 688 pixels
    Display aspect ratio           : 1.85:1
    Frame rate mode                : Constant
    Frame rate                     : 23.976 fps
    Color space                    : YUV
    Chroma subsampling             : 4:2:0
    Bit depth                      : 8 bits
    Scan type                      : Progressive
    Bits/(Pixel*Frame)             : 0.183
    Stream size                    : 2.86 GiB (98%)
    Language                       : English
    Default                        : Yes
    Forced                         : No
    Color primaries                : BT.709
    Transfer characteristics       : BT.709
    Matrix coefficients            : BT.709
    Color range                    : Limited

    Audio #1
    ID                             : 2
    Format                         : AAC
    Format/Info                    : Advanced Audio Codec
    Format profile                 : HE-AAC / LC
    Codec ID                       : A_AAC
    Duration                       : 1h 46mn
    Channel(s)                     : 2 channels
    Channel positions              : Front: L R
    Sampling rate                  : 88.2 KHz / 44.1 KHz
    Compression mode               : Lossy
    Title                          : Многоголосый 2.0 (iTunes Russia)
    Language                       : Russian
    Default                        : Yes
    Forced                         : No

    Audio #2
    ID                             : 3
    Format                         : AAC
    Format/Info                    : Advanced Audio Codec
    Format profile                 : HE-AAC / LC
    Codec ID                       : A_AAC
    Duration                       : 1h 46mn
    Channel(s)                     : 2 channels
    Channel positions              : Front: L R
    Sampling rate                  : 88.2 KHz / 44.1 KHz
    Compression mode               : Lossy
    Title                          : Английский 2.0 (Оригинал)
    Language                       : English
    Default                        : No
    Forced                         : No

    Audio #3
    ID                             : 4
    Format                         : AC-3
    Format/Info                    : Audio Coding 3
    Mode extension                 : CM (complete main)
    Format settings, Endianness    : Big
    Codec ID                       : A_AC3
    Duration                       : 1h 46mn
    Bit rate mode                  : Constant
    Bit rate                       : 384 Kbps
    Channel(s)                     : 6 channels
    Channel positions              : Front: L C R, Side: L R, LFE
    Sampling rate                  : 48.0 KHz
    Bit depth                      : 16 bits
    Compression mode               : Lossy
    Stream size                    : 292 MiB (8%)
    Title                          : Английский 5.1 (Оригинал)
    Language                       : English
    Default                        : No
    Forced                         : No

    Text
    ID                             : 5
    Format                         : UTF-8
    Codec ID                       : S_TEXT/UTF8
    Codec ID/Info                  : UTF-8 Plain Text
    Title                          : Английские (SDH)
    Language                       : English
    Default                        : No
    Forced                         : No

    Menu
    00:00:00.000                   : en:Chapter 01
    00:11:23.000                   : en:Chapter 02
    00:21:23.000                   : en:Chapter 03
    00:30:07.000                   : en:Chapter 04
    00:41:41.000                   : en:Chapter 05
    00:56:42.000                   : en:Chapter 06
    01:08:02.000                   : en:Chapter 07
    01:19:35.000                   : en:Chapter 08
    01:34:31.000                   : en:Chapter 09
    01:43:01.000                   : en:Chapter 10
    Еще похожие »

    Как скачать?
    1. Качаем UTorrent версии 2.0 и выше отсюда
    2. После установки, жмем на ссылку Скачать торрент.
    3. Открываем его через utorrent.
    4. Ждем пока подключатся участники.
    5. Качаем.


    Комментарии о Белый клык 2: Легенда о белом волке / White Fang 2: Myth of the White Wolf | WEB-DL 720p
    Добавлять комментарии могут только зарегистрированные пользователи

    Зарегистрироваться или Войти


    Ближайшее в кино
    • МУЛЬТ в кино. Выпуск №77. Команда мечты дата выхода 23 июня 2018МУЛЬТ в кино. Выпуск №77. Команда мечты
      Дата выхода: 23 июня 2018
    • 1162775|Кто украл Banksy|25 июня 2018|200|300Кто украл Banksy
      Дата выхода: 25 июня 2018
    • 1031219|План побега 2|28 июня 2018|200|300План побега 2
      Дата выхода: 28 июня 2018
    • 938461|Убийца 2. Против всех|28 июня 2018|200|300Убийца 2. Против всех
      Дата выхода: 28 июня 2018
    • 912012|Распрекрасный принц|28 июня 2018|200|300Распрекрасный принц
      Дата выхода: 28 июня 2018
    • 1015040|Во власти стихии|28 июня 2018|200|300Во власти стихии
      Дата выхода: 28 июня 2018
    • 759874|Ты водишь!|28 июня 2018|200|300Ты водишь!
      Дата выхода: 28 июня 2018
    • 1077873|Книжный клуб|28 июня 2018|200|300Книжный клуб
      Дата выхода: 28 июня 2018
    • 1047708|Инсомния|28 июня 2018|200|300Инсомния
      Дата выхода: 28 июня 2018
    • 1026748|Джим Пуговка и машинист Лукас|28 июня 2018|200|300Джим Пуговка и машинист Лукас
      Дата выхода: 28 июня 2018
    • 1038941|Осторожно: Грамп!|28 июня 2018|200|300Осторожно: Грамп!
      Дата выхода: 28 июня 2018
    • 977767|50 весенних дней|28 июня 2018|200|30050 весенних дней
      Дата выхода: 28 июня 2018
    • 1162806|Идеальный муж|4 июля 2018|200|300Идеальный муж
      Дата выхода: 4 июля 2018
    • 935940|Человек-муравей и Оса|5 июля 2018|200|300Человек-муравей и Оса
      Дата выхода: 5 июля 2018
    • 977435|Невидимка|5 июля 2018|200|300Невидимка
      Дата выхода: 5 июля 2018
    Вверх