• Игры для PS4
  • Игры для PS3
  • Игры для XBOX360
  • Игры для PC
  • Игры для PS2
  • Игры для PSP
  • Для телефонов
  • Музыка
  • Книги / Журналы
  • Обои
  • Опрос
    Удобен ли сайт в использовании?
      0
    • Очень удобен, все понятно1,1,false,300,full
    • Удобен1,2,false,300,full
    • Средне1,3,false,300,full
    • Неудобен, трудно ориентироваться1,4,false,300,full
    • Совсем неудобен1,5,false,300,full
    Статистика
    Всего онлайн -
    Гостей -
    Пользователей -
    Короли трекера
    Благодарности () Закрыть
    Название: Midnight Son
    Исполнитель: Son Seals
    Год: 1976
    Жанр: Electric Chicago Blues

    Продолжительность: 00:39:50
    Формат/Кодек: FLAC
    Битрейт аудио: Lossless

    Трек-лист

    01. I Believe (4:15)
    02. No, No Baby (4:31)
    03. Four Full Seasons of Love (2:51)
    04. Telephone Angel (5:28)
    05. Don"t Bother Me (3:53)
    06. On My Knees (4:59)
    07. Don"t Fool with Me Baby (3:04)
    08. Strung out Woman (3:46)
    09. Going Back Home (7:04)
    Свернуть


    Дополнительная информация:
    EAC
    EAC
    Exact Audio Copy V0.99 prebeta 5 from 4. May 2009

    EAC extraction logfile from 31. January 2011, 0:20

    Son Seals / Midnight Son

    Used drive  : HL-DT-STDVD-RAM GH22NP20   Adapter: 0  ID: 0

    Read mode               : Secure
    Utilize accurate stream : Yes
    Defeat audio cache      : Yes
    Make use of C2 pointers : No

    Read offset correction                      : 102
    Overread into Lead-In and Lead-Out          : No
    Fill up missing offset samples with silence : Yes
    Delete leading and trailing silent blocks   : No
    Null samples used in CRC calculations       : Yes
    Used interface                              : Native Win32 interface for Win NT & 2000

    Used output format              : User Defined Encoder
    Selected bitrate                : 1024 kBit/s
    Quality                         : High
    Add ID3 tag                     : No
    Command line compressor         : C:Program Files (x86)Exact Audio CopyFlacflac.exe
    Additional command line options : -V -6 -T "artist=%a" -T "title=%t" -T "album=%g" -T "date=%y" -T "tracknumber=%n" -T "genre=%m" %s

    TOC of the extracted CD

    Track |   Start  |  Length  | Start sector | End sector
    ---------------------------------------------------------
    1  |  0:00.00 |  4:15.17 |         0    |    19141
    2  |  4:15.17 |  4:30.70 |     19142    |    39461
    3  |  8:46.12 |  2:50.45 |     39462    |    52256
    4  | 11:36.57 |  5:27.45 |     52257    |    76826
    5  | 17:04.27 |  3:52.68 |     76827    |    94294
    6  | 20:57.20 |  4:59.12 |     94295    |   116731
    7  | 25:56.32 |  3:04.35 |    116732    |   130566
    8  | 29:00.67 |  3:45.38 |    130567    |   147479
    9  | 32:46.30 |  7:03.60 |    147480    |   179264

    Range status and errors

    Selected range

    Filename D:RipsSon Seals - Midnight Son (1976)Son Seals - Midnight Son.wav

    Peak level 99.5 %
    Range quality 99.9 %
    Test CRC 91189A13
    Copy CRC 91189A13
    Copy OK

    No errors occurred

    AccurateRip summary

    Track  1  accurately ripped (confidence 7)  [C6F54CEF]
    Track  2  accurately ripped (confidence 8)  [B92BFCE8]
    Track  3  accurately ripped (confidence 7)  [B784D3F5]
    Track  4  accurately ripped (confidence 8)  [51F84CF3]
    Track  5  accurately ripped (confidence 8)  [63E71CA9]
    Track  6  accurately ripped (confidence 8)  [C6DA0714]
    Track  7  accurately ripped (confidence 8)  [AC9297E5]
    Track  8  accurately ripped (confidence 7)  [DFD3F319]
    Track  9  accurately ripped (confidence 7)  [09ADAA5C]

    All tracks accurately ripped

    End of status reportСвернуть


    Производитель диска: Alligator Records
    Каталожный №: ALCD 4708
    Похожие раздачи Искать похожие
    Инструкция по скачиванию
     1  Качаем uTorrent версии 2.0 и выше
     2  После установки, жмем выше под постером на ссылку Скачать [MediaGet] или Скачать .torrent
     3  Открываем скачанный файл через соответствующий клиент: MediaGet или uTorrent
     4  Ждем пока подключатся участники
     5  Качаем
    Комментарии о  Son Seals - Midnight Son | FLAC 
    Ближайшее в кино
    Вверх