• Игры для PS3
  • Игры для XBOX360
  • Игры для PC
  • Игры для PS2
  • Игры для PSP
  • Для телефонов
  • Музыка
  • Книги/Журналы
  • Обои
  •  
    Опрос
    Откуда Вы о нас узнали?
      0
    • От знакомых2,1,false,300,full
    • Из социальных сетей2,2,false,300,full
    • Из поисковых систем2,3,false,300,full
    • Другое2,4,false,300,full
    Статистика
    Загрузка...
    Остров сокровищ | DVDRip-AVC
    Статус  Проверено
    В закладки
    Модератор: Max

    Остров сокровищ | DVDRip-AVC [Фильмы 1971] скачать торрентом/torrent бесплатно

    Год выхода
    Категории
    Язык
    Закачал
    Аноним | 07 июня 2017 в 17ч 37м 21с
    Раздел
    Отзывов
    0
    Раздают: 21 Качают: 1 Скачали: 31 Размер: 3.94 GB
    Инфо о раздаче | Благодарности |
    0/5
    0
    0 5 0
    Поддержи нас — расскажи друзьям!
    Orbitum
    Новый интернет-браузер Быстрее загружает сайты Экономит интернет—трафик Меняет оформление страницы ВК Блокирует всю рекламу на сайтах Загружает торренты как

    µTorrent

    клиент
    Объеденяет все твои чаты из соц. сетей в один Проигрывает твою музыку не заходя во ВКонтакте
    Скачать и многое другое... Подробности на сайте производителя
    Информация о фильме
    Название: Остров сокровищ
    Год выхода: 1971
    Жанр: Приключения, экранизация
    Режиссер: Евгений Фридман
    В ролях: Борис Андреев, Ааре Лаанеметс, Лаймонас Норейка, Альгимантас Масюлис, Юозас Урманавичюс, Людмила Шагалова, Антанас Пикялис, Михаил Селютин, Витаутас Томкус, Харий Авенс, Николай Силис, Юрис Плявиньш, Игорь Класс, Казимирас Виткус, Андрей Файт, Владимир Грамматиков, Роберт Росс, Александр Алешин, Валентин Рудович, Валерий Лысенков

    О фильме:
    Когда в таверне «Адмирал Бенбоу» поселился старый пират Билли Бонс, юный Джим Хокинс еще не знал, что его жизнь очень скоро круто переменится. Но ему посчастливилось обнаружить в сундучке морского бродяги карту Острова Сокровищ. И Джим в компании доктора Ливси, сквайра Трелони, капитана Смоллетта, корабельного кока Джона Сильвера и его говорящего попугая отправляется в далекое и опасное путешествие…



    Страна: СССР
    Студия: Киностудия им. М. Горького
    Продолжительность: 01:22:22
    Перевод: не требуется

    Файл
    Кодек: h.264
    Качество: DVDRip
    Видео: MPEG-4 AVC, 720x304, 5500 Кбит/с, 25.000 кадр/с
    Звук:
    Аудио #1: Русский ( AC3, 6ch, 448 Кбит/с, 48.0 KHz)
    Аудио #2: Английский ( AC3, 6ch, 448 Кбит/с, 48.0 KHz)
    Аудио #3: Французский ( AC3, 6ch, 448 Кбит/с, 48.0 KHz)
    Субтитры: русские, английские
    Семпл


    MediaInfo
    General
    Unique ID                      : 227942526364594509097534645555754209003 (0xAB7C223AFB3DF24F95A8E50FE27C8EEB)
    Complete name                  : Ostrov.sokrovishch.1971.DVDRip-AVC.mkv
    Format                         : Matroska
    Format version                 : Version 4 / Version 2
    File size                      : 3.94 GiB
    Duration                       : 1 h 22 min
    Overall bit rate               : 6 847 kb/s
    Encoded date                   : UTC 2017-06-07 12:39:37
    Writing application            : mkvmerge v7.8.0 ("River Man") 64bit built on Mar 27 2015 16:31:37
    Writing library                : libebml v1.3.1 + libmatroska v1.4.2

    Video
    ID                             : 1
    Format                         : AVC
    Format/Info                    : Advanced Video Codec
    Format profile                 : High@L4.1
    Format settings, CABAC         : Yes
    Format settings, ReFrames      : 12 frames
    Codec ID                       : V_MPEG4/ISO/AVC
    Duration                       : 1 h 22 min
    Bit rate                       : 5 500 kb/s
    Width                          : 720 pixels
    Height                         : 304 pixels
    Display aspect ratio           : 2.35:1
    Frame rate mode                : Constant
    Frame rate                     : 25.000 FPS
    Color space                    : YUV
    Chroma subsampling             : 4:2:0
    Bit depth                      : 8 bits
    Scan type                      : Progressive
    Bits/(Pixel*Frame)             : 1.005
    Stream size                    : 3.16 GiB (80%)
    Title                          : Video-H264
    Writing library                : x264 core 146 r2538 121396c
    Encoding settings              : cabac=1 / ref=12 / deblock=1:-3:-3 / analyse=0x3:0x133 / me=umh / subme=11 / psy=1 / psy_rd=1.00:0.00 / mixed_ref=1 / me_range=32 / chroma_me=1 / trellis=2 / 8x8dct=1 / cqm=0 / deadzone=21,11 / fast_pskip=1 / chroma_qp_offset=-2 / threads=6 / lookahead_threads=1 / sliced_threads=0 / nr=0 / decimate=1 / interlaced=0 / bluray_compat=0 / constrained_intra=0 / bframes=10 / b_pyramid=2 / b_adapt=2 / b_bias=0 / direct=3 / weightb=1 / open_gop=0 / weightp=2 / keyint=250 / keyint_min=23 / scenecut=40 / intra_refresh=0 / rc_lookahead=60 / rc=2pass / mbtree=1 / bitrate=5500 / ratetol=1.0 / qcomp=0.60 / qpmin=0 / qpmax=69 / qpstep=4 / cplxblur=20.0 / qblur=0.5 / ip_ratio=1.40 / aq=1:1.00
    Language                       : Russian
    Default                        : Yes
    Forced                         : No

    Audio #1
    ID                             : 2
    Format                         : AC-3
    Format/Info                    : Audio Coding 3
    Mode extension                 : CM (complete main)
    Format settings, Endianness    : Big
    Codec ID                       : A_AC3
    Duration                       : 1 h 22 min
    Bit rate mode                  : Constant
    Bit rate                       : 448 kb/s
    Channel(s)                     : 6 channels
    Channel positions              : Front: L C R, Side: L R, LFE
    Sampling rate                  : 48.0 kHz
    Frame rate                     : 31.250 FPS (1536 spf)
    Bit depth                      : 16 bits
    Compression mode               : Lossy
    Stream size                    : 264 MiB (7%)
    Language                       : Russian
    Default                        : Yes
    Forced                         : No

    Audio #2
    ID                             : 3
    Format                         : AC-3
    Format/Info                    : Audio Coding 3
    Mode extension                 : CM (complete main)
    Format settings, Endianness    : Big
    Codec ID                       : A_AC3
    Duration                       : 1 h 22 min
    Bit rate mode                  : Constant
    Bit rate                       : 448 kb/s
    Channel(s)                     : 6 channels
    Channel positions              : Front: L C R, Side: L R, LFE
    Sampling rate                  : 48.0 kHz
    Frame rate                     : 31.250 FPS (1536 spf)
    Bit depth                      : 16 bits
    Compression mode               : Lossy
    Stream size                    : 264 MiB (7%)
    Language                       : English
    Default                        : No
    Forced                         : No

    Audio #3
    ID                             : 4
    Format                         : AC-3
    Format/Info                    : Audio Coding 3
    Mode extension                 : CM (complete main)
    Format settings, Endianness    : Big
    Codec ID                       : A_AC3
    Duration                       : 1 h 22 min
    Bit rate mode                  : Constant
    Bit rate                       : 448 kb/s
    Channel(s)                     : 6 channels
    Channel positions              : Front: L C R, Side: L R, LFE
    Sampling rate                  : 48.0 kHz
    Frame rate                     : 31.250 FPS (1536 spf)
    Bit depth                      : 16 bits
    Compression mode               : Lossy
    Stream size                    : 264 MiB (7%)
    Language                       : French
    Default                        : No
    Forced                         : No

    Text #1
    ID                             : 5
    Format                         : UTF-8
    Codec ID                       : S_TEXT/UTF8
    Codec ID/Info                  : UTF-8 Plain Text
    Duration                       : 1 h 17 min
    Bit rate                       : 65 b/s
    Count of elements              : 584
    Stream size                    : 37.1 KiB (0%)
    Language                       : Russian
    Default                        : No
    Forced                         : No

    Text #2
    ID                             : 6
    Format                         : UTF-8
    Codec ID                       : S_TEXT/UTF8
    Codec ID/Info                  : UTF-8 Plain Text
    Duration                       : 1 h 22 min
    Bit rate                       : 45 b/s
    Count of elements              : 636
    Stream size                    : 27.6 KiB (0%)
    Language                       : English
    Default                        : No
    Forced                         : No

    Как скачать?
    1. Качаем UTorrent версии 2.0 и выше отсюда
    2. После установки, жмем на ссылку Скачать торрент.
    3. Открываем его через utorrent.
    4. Ждем пока подключатся участники.
    5. Качаем.


    Комментарии о Остров сокровищ | DVDRip-AVC
    Добавлять комментарии могут только зарегистрированные пользователи

    Зарегистрироваться или Войти


    Ближайшее в кино
    • Невидимый гость дата выхода 31 мая 2018Невидимый гость
      Дата выхода: 31 мая 2018
    • 762500|Красный воробей|31 мая 2018|200|300Красный воробей
      Дата выхода: 31 мая 2018
    • 843121|Как разговаривать с девушками на вечеринках|31 мая 2018|200|300Как разговаривать с девушками на вечеринках
      Дата выхода: 31 мая 2018
    • 965611|Истории призраков|31 мая 2018|200|300Истории призраков
      Дата выхода: 31 мая 2018
    • 1048530|Моя жизнь|31 мая 2018|200|300Моя жизнь
      Дата выхода: 31 мая 2018
    • 1030828|Псы под прикрытием|31 мая 2018|200|300Псы под прикрытием
      Дата выхода: 31 мая 2018
    • 927822|Два хвоста|31 мая 2018|200|300Два хвоста
      Дата выхода: 31 мая 2018
    • 1061480|От семьи не убежишь|31 мая 2018|200|300От семьи не убежишь
      Дата выхода: 31 мая 2018
    • 1057083|Сказки о маме|31 мая 2018|200|300Сказки о маме
      Дата выхода: 31 мая 2018
    • 924311|Мир Юрского периода 2|7 июня 2018|200|300Мир Юрского периода 2
      Дата выхода: 7 июня 2018
    • 1074222|Красотка на всю голову|7 июня 2018|200|300Красотка на всю голову
      Дата выхода: 7 июня 2018
    • 1009413|Лето|7 июня 2018|200|300Лето
      Дата выхода: 7 июня 2018
    • 935794|Первые|7 июня 2018|200|300Первые
      Дата выхода: 7 июня 2018
    • 1112132|Реинкарнация|7 июня 2018|200|300Реинкарнация
      Дата выхода: 7 июня 2018
    • 1118194|Решение о ликвидации|7 июня 2018|200|300Решение о ликвидации
      Дата выхода: 7 июня 2018
    Вверх