• Игры для PS4
  • Игры для PS3
  • Игры для XBOX360
  • Игры для PC
  • Игры для PS2
  • Игры для PSP
  • Для телефонов
  • Музыка
  • Книги/Журналы
  • Обои
  •  
    Опрос
    Откуда Вы о нас узнали?
      0
    • От знакомых2,1,false,300,full
    • Из социальных сетей2,2,false,300,full
    • Из поисковых систем2,3,false,300,full
    • Другое2,4,false,300,full
    Статистика
    Загрузка...
    Темная Вселенная / Justice League Dark | HDRip
    Статус  Проверено
    В закладки
    Модератор: Max

    Темная Вселенная / Justice League Dark | HDRip [Фильмы 2017] скачать торрентом/torrent бесплатно

    Год выхода
    Язык
    Закачал
    Max | 07 июня 2017 в 17ч 37м 51с
    Раздел
    Отзывов
    0
    Раздают: 2 Качают: 0 Скачали: 3 Размер: 342.67 MB
    Инфо о раздаче | Благодарности |
    0/5
    0
    0 5 0
    Поддержи нас — расскажи друзьям!
    Orbitum
    Новый интернет-браузер Быстрее загружает сайты Экономит интернет—трафик Меняет оформление страницы ВК Блокирует всю рекламу на сайтах Загружает торренты как

    µTorrent

    клиент
    Объеденяет все твои чаты из соц. сетей в один Проигрывает твою музыку не заходя во ВКонтакте
    Скачать и многое другое... Подробности на сайте производителя
    Информация о фильме
    Название: Темная Вселенная
    Оригинальное название: Justice League Dark
    Год выхода: 2017
    Жанр:  Мультфильм, фантастика, фэнтези, боевик, триллер, комикс, полнометражный
    Режиссер: Джей Олива
    В ролях: Розарио Доусон, Камилла Ладдингтон, Джейсон О’Мара, Альфред Молина, Джерри О`Коннелл, Джереми Дэвис, Рэй Чейз, Мэтт Райан, Ди Брэдли Бэйкер, Роджер Р. Кросс

    О фильме:
    Мультфильм «Темная Лига Справедливости (Justice League Dark)» очень порадует поклонников супергероев DC. Главой группы сверхъестественных героев выступает Джон Константин, в команду которого входят - Болотная тварь, Затанна, Мертвец, Демон и Черная орхидея. Все они объединяются в Темную Лигу Справедливости, чтобы взять на себя оккультные и сверхъестественные угрозы, против которых Лига Справедливости может оказаться бессильной. Сюжет многообещающий, и не зря, ведь сценаристом этого шедевра является Гильермо дель Торо.



    Страна: США
    Студия: Warner Bros. Animation, DC Entertainment
    Продолжительность: 01:15:51
    Перевод(ы):
    #1: Любительский многоголосый (закадровый) | Shadow Dub
    #2: Любительский многоголосый (закадровый) | Cтудия Saint-Sound.TV

    Файл
    Формат: MP4
    Качество: HDRip | КПК
    Видео: Н.264, 640x360 (16:9), 24.000 fps, 500 Kbps
    Звук: AAC LC, 48.0 KHz, 2 ch, 128 Kbps

    MI
    Общее
    Полное имя : C:UsersАлександрDesktopфильмJustice.League.Dark.2017.ImperiaFilm.mp4
    Формат : MPEG-4
    Профиль формата : Base Media
    Идентификатор кодека : isom (isom/avc1/iso6)
    Размер файла : 343 Мбайт
    Продолжительность : 1 ч. 15 м.
    Режим общего битрейта : Переменный
    Общий поток : 632 Кбит/сек
    Дата кодирования : UTC 2017-06-07 11:48:27
    Дата пометки : UTC 2017-06-07 11:48:27

    Видео
    Идентификатор : 1
    Формат : AVC
    Формат/Информация : Advanced Video Codec
    Профиль формата : High@L4.1
    Параметр CABAC формата : Да
    Параметр ReFrames формата : 10 кадров
    Идентификатор кодека : avc1
    Идентификатор кодека/Информация : Advanced Video Coding
    Продолжительность : 1 ч. 15 м.
    Битрейт : 500 Кбит/сек
    Максимальный битрейт : 2095 Кбит/сек
    Ширина : 640 пикселей
    Высота : 360 пикселей
    Соотношение сторон : 16:9
    Режим частоты кадров : Постоянный
    Частота кадров : 24,000 кадра/сек
    Цветовое пространство : YUV
    Субдискретизация насыщенности : 4:2:0
    Битовая глубина : 8 бит
    Тип развёртки : Прогрессивная
    Бит/(Пиксели*Кадры) : 0.090
    Размер потока : 271 Мбайт (79%)
    Заголовок : 264@GPAC0.5.2-DEV-rev248-g39d5978-master
    Библиотека кодирования : x264 core 146 r2538 121396c
    Настройки программы : cabac=1 / ref=10 / deblock=1:-3:-3 / analyse=0x3:0x113 / me=umh / subme=11 / psy=1 / psy_rd=1.00:0.00 / mixed_ref=1 / me_range=48 / chroma_me=1 / trellis=2 / 8x8dct=1 / cqm=0 / deadzone=21,11 / fast_pskip=0 / chroma_qp_offset=-2 / threads=6 / lookahead_threads=1 / sliced_threads=0 / nr=0 / decimate=0 / interlaced=0 / bluray_compat=0 / constrained_intra=0 / bframes=10 / b_pyramid=2 / b_adapt=2 / b_bias=0 / direct=3 / weightb=1 / open_gop=0 / weightp=2 / keyint=240 / keyint_min=24 / scenecut=40 / intra_refresh=0 / rc_lookahead=40 / rc=2pass / mbtree=0 / bitrate=500 / ratetol=1.0 / qcomp=0.60 / qpmin=0 / qpmax=69 / qpstep=4 / cplxblur=20.0 / qblur=0.5 / vbv_maxrate=14000 / vbv_bufsize=14000 / nal_hrd=none / filler=0 / ip_ratio=1.40 / pb_ratio=1.30 / aq=1:1.00
    Дата кодирования : UTC 2017-06-07 11:48:27
    Дата пометки : UTC 2017-06-07 11:48:41

    Аудио
    Идентификатор : 2
    Формат : AAC
    Формат/Информация : Advanced Audio Codec
    Профиль формата : LC
    Идентификатор кодека : 40
    Продолжительность : 1 ч. 15 м.
    Вид битрейта : Переменный
    Битрейт : 128 Кбит/сек
    Максимальный битрейт : 156 Кбит/сек
    Каналы : 2 канала
    Расположение каналов : Front: L R
    Частота : 48,0 КГц
    Частота кадров : 46,875 кадров/сек (1024 spf)
    Метод сжатия : С потерями
    Размер потока : 69,3 Мбайт (20%)
    Дата кодирования : UTC 2017-06-07 09:17:53
    Дата пометки : UTC 2017-06-07 11:48:41


    Скриншоты
    [img]http://i94.fastpic.ru/big/2017/0607/57/82ff3c5ecae0d8f3b4825d2487b61e57.jpg[/img][img]http://i92.fastpic.ru/big/2017/0607/3c/fcd7cc17049a431eccb3c314072ee63c.jpg[/img][img]http://i96.fastpic.ru/big/2017/0607/a3/cc5262d47390d6c9063a52cd2f90d0a3.jpg[/img]

    [img]http://i96.fastpic.ru/big/2017/0607/2a/624fdbb296115b074021756ddc67ae2a.jpg[/img][img]http://i93.fastpic.ru/big/2017/0607/c6/05595e64af4b5cb043ece864030f2bc6.jpg[/img][img]http://i95.fastpic.ru/big/2017/0607/1a/e501192e746903b6990c787de54a3f1a.jpg[/img]


    [img]http://i91.fastpic.ru/big/2017/0430/ee/411863a07f401662e4197d6d41f556ee.gif[/img][img]http://i91.fastpic.ru/big/2017/0430/f8/cb297ab242a60d92522abbf9810f00f8.gif[/img]
    Еще похожие »

    Как скачать?
    1. Качаем UTorrent версии 2.0 и выше отсюда
    2. После установки, жмем на ссылку Скачать торрент.
    3. Открываем его через utorrent.
    4. Ждем пока подключатся участники.
    5. Качаем.


    Комментарии о Темная Вселенная / Justice League Dark | HDRip
    Добавлять комментарии могут только зарегистрированные пользователи

    Зарегистрироваться или Войти


    Ближайшее в кино
    • МУЛЬТ в кино. Выпуск №77. Команда мечты дата выхода 23 июня 2018МУЛЬТ в кино. Выпуск №77. Команда мечты
      Дата выхода: 23 июня 2018
    • 1162775|Кто украл Banksy|25 июня 2018|200|300Кто украл Banksy
      Дата выхода: 25 июня 2018
    • 1031219|План побега 2|28 июня 2018|200|300План побега 2
      Дата выхода: 28 июня 2018
    • 938461|Убийца 2. Против всех|28 июня 2018|200|300Убийца 2. Против всех
      Дата выхода: 28 июня 2018
    • 912012|Распрекрасный принц|28 июня 2018|200|300Распрекрасный принц
      Дата выхода: 28 июня 2018
    • 1015040|Во власти стихии|28 июня 2018|200|300Во власти стихии
      Дата выхода: 28 июня 2018
    • 759874|Ты водишь!|28 июня 2018|200|300Ты водишь!
      Дата выхода: 28 июня 2018
    • 1077873|Книжный клуб|28 июня 2018|200|300Книжный клуб
      Дата выхода: 28 июня 2018
    • 1047708|Инсомния|28 июня 2018|200|300Инсомния
      Дата выхода: 28 июня 2018
    • 1026748|Джим Пуговка и машинист Лукас|28 июня 2018|200|300Джим Пуговка и машинист Лукас
      Дата выхода: 28 июня 2018
    • 1038941|Осторожно: Грамп!|28 июня 2018|200|300Осторожно: Грамп!
      Дата выхода: 28 июня 2018
    • 977767|50 весенних дней|28 июня 2018|200|30050 весенних дней
      Дата выхода: 28 июня 2018
    • 1162806|Идеальный муж|4 июля 2018|200|300Идеальный муж
      Дата выхода: 4 июля 2018
    • 935940|Человек-муравей и Оса|5 июля 2018|200|300Человек-муравей и Оса
      Дата выхода: 5 июля 2018
    • 977435|Невидимка|5 июля 2018|200|300Невидимка
      Дата выхода: 5 июля 2018
    Вверх