• Игры для PS4
  • Игры для PS3
  • Игры для XBOX360
  • Игры для PC
  • Игры для PS2
  • Игры для PSP
  • Для телефонов
  • Музыка
  • Книги / Журналы
  • Обои
  • Опрос
    Удобен ли сайт в использовании?
      0
    • Очень удобен, все понятно1,1,false,300,full
    • Удобен1,2,false,300,full
    • Средне1,3,false,300,full
    • Неудобен, трудно ориентироваться1,4,false,300,full
    • Совсем неудобен1,5,false,300,full
    Статистика
    Всего онлайн -
    Гостей -
    Пользователей -
    Короли трекера
    
    Благодарности () Закрыть
    Информация о фильме
    Название: Остров сокровищ
    Год выхода: 1982
    Жанр: Приключения, семейный, экранизация
    Режиссер: Владимир Воробьёв
    В ролях: Фёдор Стуков, Олег Борисов, Виктор Костецкий, Владислав Стржельчик, Константин Григорьев, Леонид Марков, Георгий Тейх, Ольга Волкова, Валерий Золотухин, Николай Караченцов, Геннадий Юхтин, Георгий Штиль, Владимир Воробьёв (I), Гелий Сысоев, Константин Воробьёв, Николай Крюков, Анатолий Сливников, Андрей Алексеев, Игорь Ефимов, Николай Кузьмин, Станислав Соколов

    О фильме:
    По одноименному роману Роберта Льюиса Стивенсона. Юный Джим Хокинс и его друзья - доктор Ливси и сквайр Трелони - случайно становятся обладателями карты капитана Флинта, на которой указано место в Карибском море, где спрятаны несметные сокровища знаменитого пирата. На прекрасной шхуне "Эспаньола" они начинают опасное плавание к далекому острову и не подозревают, что вместе с ними за сокровищами, прикинувшись скромным корабельным коком, отправился Джон Сильвер - самый кровожадный и коварный пират.



    Страна: СССР
    Студия: Гостелерадио, Лентелефильм
    Продолжительность: 00:57:01 + 01:05:43 + 01:01:12
    Перевод: не требуется

    Файл
    Кодек: h.264
    Качество: DVDRip
    Видео: MPEG-4 AVC, 720x536, 5000 Кбит/с, 25.000 кадр/с
    Звук: Аудио #1: Русский ( AC3, 6ch, 448 Кбит/с, 48.0 KHz)
    Субтитры: нет
    Семпл


    MediaInfo
    General
    Unique ID                      : 239614568110151809291952592236431278413 (0xB4441651A8008B63B759D21B0194014D)
    Complete name                  : Ostrov.sokrovishch.1982.DVDRip-AVC
    Format                         : Matroska
    Format version                 : Version 2
    File size                      : 2.17 GiB
    Duration                       : 57 min 1 s
    Overall bit rate               : 5 449 kb/s
    Encoded date                   : UTC 2017-06-05 15:46:24
    Writing application            : mkvmerge v7.8.0 ("River Man") 32bit built on Apr  3 2015 12:11:22
    Writing library                : libebml v1.3.1 + libmatroska v1.4.2

    Video
    ID                             : 1
    Format                         : AVC
    Format/Info                    : Advanced Video Codec
    Format profile                 : High@L4.1
    Format settings, CABAC         : Yes
    Format settings, ReFrames      : 12 frames
    Codec ID                       : V_MPEG4/ISO/AVC
    Duration                       : 57 min 1 s
    Bit rate                       : 5 000 kb/s
    Width                          : 720 pixels
    Height                         : 536 pixels
    Display aspect ratio           : 4:3
    Frame rate mode                : Constant
    Frame rate                     : 25.000 FPS
    Color space                    : YUV
    Chroma subsampling             : 4:2:0
    Bit depth                      : 8 bits
    Scan type                      : Progressive
    Bits/(Pixel*Frame)             : 0.518
    Stream size                    : 1.95 GiB (90%)
    Writing library                : x264 core 146 r2538 121396c
    Encoding settings              : cabac=1 / ref=12 / deblock=1:-3:-3 / analyse=0x3:0x133 / me=umh / subme=11 / psy=1 / psy_rd=1.00:0.00 / mixed_ref=1 / me_range=32 / chroma_me=1 / trellis=2 / 8x8dct=1 / cqm=0 / deadzone=21,11 / fast_pskip=1 / chroma_qp_offset=-2 / threads=6 / lookahead_threads=1 / sliced_threads=0 / nr=0 / decimate=1 / interlaced=0 / bluray_compat=0 / constrained_intra=0 / bframes=10 / b_pyramid=2 / b_adapt=2 / b_bias=0 / direct=3 / weightb=1 / open_gop=0 / weightp=2 / keyint=250 / keyint_min=23 / scenecut=40 / intra_refresh=0 / rc_lookahead=60 / rc=2pass / mbtree=1 / bitrate=5000 / ratetol=1.0 / qcomp=0.60 / qpmin=0 / qpmax=69 / qpstep=4 / cplxblur=20.0 / qblur=0.5 / ip_ratio=1.40 / aq=1:1.00
    Default                        : Yes
    Forced                         : No

    Audio
    ID                             : 2
    Format                         : AC-3
    Format/Info                    : Audio Coding 3
    Mode extension                 : CM (complete main)
    Format settings, Endianness    : Big
    Codec ID                       : A_AC3
    Duration                       : 57 min 1 s
    Bit rate mode                  : Constant
    Bit rate                       : 448 kb/s
    Channel(s)                     : 6 channels
    Channel positions              : Front: L C R, Side: L R, LFE
    Sampling rate                  : 48.0 kHz
    Frame rate                     : 31.250 FPS (1536 spf)
    Bit depth                      : 16 bits
    Compression mode               : Lossy
    Stream size                    : 183 MiB (8%)
    Default                        : Yes
    Forced                         : NoСвернуть
    Инструкция по скачиванию
     1  Качаем uTorrent версии 2.0 и выше
     2  После установки, жмем выше под постером на ссылку Скачать [MediaGet] или Скачать .torrent
     3  Открываем скачанный файл через соответствующий клиент: MediaGet или uTorrent
     4  Ждем пока подключатся участники
     5  Качаем
    Комментарии о  Остров сокровищ | DVDRip-AVC 
    Ближайшее в кино
    Вверх