• Игры для PS4
  • Игры для PS3
  • Игры для XBOX360
  • Игры для PC
  • Игры для PS2
  • Игры для PSP
  • Для телефонов
  • Музыка
  • Книги / Журналы
  • Обои
  • Опрос
    Удобен ли сайт в использовании?
      0
    • Очень удобен, все понятно1,1,false,300,full
    • Удобен1,2,false,300,full
    • Средне1,3,false,300,full
    • Неудобен, трудно ориентироваться1,4,false,300,full
    • Совсем неудобен1,5,false,300,full
    Статистика
    Всего онлайн -
    Гостей -
    Пользователей -
    Короли трекера
    
    Благодарности () Закрыть
    Информация о фильме
    Название: Фамильные ценности
    Год выхода: 2015
    Жанр: Мелодрама
    Режиссер: Владимир Янковский, Татьяна Ивашкина, Александр Богуславский, Александр Шик
    В ролях: Анна Пескова, Ольга Науменко, Петар Зекавица, Виктор Добронравов, Ксения Энтелис, Дмитрий Орлов, Светлана Кожемякина, Екатерина Дмитриева, Иван Егоров, Елена Нестерова, Александр Ильин, Владимир Янковский, Валентина Лосовская, Дмитрий Комов, Вероника Григорович, Кирилл Захаров

    О фильме: Действия разворачиваются в современной Москве. В центре истории талантливая балерина (Анна Пескова), вокруг которой и будут кипеть страсти, разворачиваться закулисные интриги. Завистливые коллеги не дают покоя успешной танцовщице: ее лучшая подруга «помогает» девушке сломать ногу, а партнер днями не спит – думает, как подставить сильную конкурентку.



    Страна: Россия
    Студия: Компания "Единая Медиа Группа", ВГТРК
    Продолжительность: 4 x ~ 00:45:00
    Перевод: Не  требуется

    Файл
    Кодек: AVC
    Качество: WEB-DL 720p
    Видео: MPEG-4 AVC, ~ 2569 Кбит/с, 1280x720
    Звук: AC3, 2 ch, 192 Кбит/с

    MI

    Общее
    Уникальный идентификатор                 : 289750792128103205431346536218574196047 (0xD9FBF902AAB9661335AECBE6B0680D4F)
    Полное имя                               : C:UsersuserDesktop�2.Фамильные ценности. (1 пак).2015.WEB-DL (720p).Files-x.mkv.mkv
    Формат                                   : Matroska
    Версия формата                           : Version 4 / Version 2
    Размер файла                             : 886 Мбайт
    Продолжительность                        : 44 м.
    Общий поток                              : 2756 Кбит/сек
    Программа кодирования                    : Lavf56.25.101
    Библиотека кодирования                   : Lavf56.25.101

    Видео
    Идентификатор                            : 1
    Формат                                   : AVC
    Формат/Информация                        : Advanced Video Codec
    Профиль формата                          : High@L4.0
    Параметр CABAC формата                   : Да
    Параметр ReFrames формата                : 4 кадра
    Идентификатор кодека                     : V_MPEG4/ISO/AVC
    Продолжительность                        : 44 м.
    Битрейт                                  : 2569 Кбит/сек
    Ширина                                   : 1280 пикселей
    Высота                                   : 720 пикселей
    Соотношение сторон                       : 16:9
    Режим частоты кадров                     : Постоянный
    Частота кадров                           : 25,000 кадров/сек
    Цветовое пространство                    : YUV
    Субдискретизация насыщенности            : 4:2:0
    Битовая глубина                          : 8 бит
    Тип развёртки                            : Прогрессивная
    Бит/(Пиксели*Кадры)                      : 0.112
    Размер потока                            : 806 Мбайт (91%)
    Библиотека кодирования                   : x264 core 142
    Настройки программы                      : cabac=1 / ref=3 / deblock=1:0:0 / analyse=0x3:0x113 / me=hex / subme=7 / psy=1 / psy_rd=1.00:0.00 / mixed_ref=1 / me_range=16 / chroma_me=1 / trellis=1 / 8x8dct=1 / cqm=0 / deadzone=21,11 / fast_pskip=1 / chroma_qp_offset=-2 / threads=48 / lookahead_threads=5 / sliced_threads=0 / nr=0 / decimate=1 / interlaced=0 / bluray_compat=0 / constrained_intra=0 / bframes=6 / b_pyramid=2 / b_adapt=1 / b_bias=0 / direct=1 / weightb=1 / open_gop=0 / weightp=2 / keyint=50 / keyint_min=26 / scenecut=0 / intra_refresh=0 / rc_lookahead=40 / rc=2pass / mbtree=1 / bitrate=2569 / ratetol=1.0 / qcomp=0.60 / qpmin=0 / qpmax=69 / qpstep=4 / cplxblur=20.0 / qblur=0.5 / vbv_maxrate=3854 / vbv_bufsize=10279 / nal_hrd=none / filler=0 / ip_ratio=1.40 / aq=1:1.00
    Default                                  : Да
    Forced                                   : Нет

    Аудио
    Идентификатор                            : 2
    Формат                                   : AC-3
    Формат/Информация                        : Audio Coding 3
    Расширение режима                        : CM (complete main)
    Параметр Endianness формата              : Big
    Идентификатор кодека                     : A_AC3
    Продолжительность                        : 44 м.
    Вид битрейта                             : Постоянный
    Битрейт                                  : 192 Кбит/сек
    Каналы                                   : 2 канала
    Расположение каналов                     : Front: L R
    Частота                                  : 48,0 КГц
    Битовая глубина                          : 16 бит
    Метод сжатия                             : С потерями
    Задержка видео                           : 1 м. 5 с.
    Размер потока                            : 61,7 Мбайт (7%)
    Default                                  : Да
    Forced                                   : НетСвернуть


    Скриншоты
    [screen]http://i92.fastpic.ru/big/2017/0607/4d/ab912d5472e0cca99d14472fda05674d.jpg[/screen][screen]http://i93.fastpic.ru/big/2017/0607/1d/da1c46aa68e3d4aa316dfadeecf64b1d.jpg[/screen][screen]http://i94.fastpic.ru/big/2017/0607/3d/cb1870ec568fd5378e2deb7214b5ed3d.jpg[/screen][screen]http://i93.fastpic.ru/big/2017/0607/c0/79633f0e663aa8483102b926f1a067c0.jpg[/screen]Свернуть
    Инструкция по скачиванию
     1  Качаем uTorrent версии 2.0 и выше
     2  После установки, жмем выше под постером на ссылку Скачать [MediaGet] или Скачать .torrent
     3  Открываем скачанный файл через соответствующий клиент: MediaGet или uTorrent
     4  Ждем пока подключатся участники
     5  Качаем
    Комментарии о  Фамильные ценности [Серии 01-04 из 60] | WEB-DL 720p 
    Ближайшее в кино
    Вверх