• Игры для PS3
  • Игры для XBOX360
  • Игры для PC
  • Игры для PS2
  • Игры для PSP
  • Для телефонов
  • Музыка
  • Книги/Журналы
  • Обои
  •  
    Опрос
    Удобен ли сайт в использовании?
      0
    • Очень удобен, все понятно1,1,false,300,full
    • Удобен1,2,false,300,full
    • Средне1,3,false,300,full
    • Неудобен, трудно ориентироваться1,4,false,300,full
    • Совсем неудобен1,5,false,300,full
    Статистика
    Загрузка...
    Молодожёны / We Got Married [Сезон 04 | 01-01 серии из 38] | HDTVRip 720p
    Статус  Проверено
    В закладки
    Модератор: Max

    Молодожёны / We Got Married [Сезон 04 | 01-01 серии из 38] | HDTVRip 720p [Сериалы 2014-2015] скачать торрентом/torrent бесплатно

    Год выхода
    Категории
    Язык
    Закачал
    Max | 07 июня 2017 в 22ч 19м 58с
    Раздел
    Отзывов
    0
    Раздают: 0 Качают: 0 Скачали: 0 Размер: 1.24 GB
    Инфо о раздаче | Благодарности |
    0/5
    0
    0 5 0
    Поддержи нас — расскажи друзьям!
    Orbitum
    Новый интернет-браузер Быстрее загружает сайты Экономит интернет—трафик Меняет оформление страницы ВК Блокирует всю рекламу на сайтах Загружает торренты как

    µTorrent

    клиент
    Объеденяет все твои чаты из соц. сетей в один Проигрывает твою музыку не заходя во ВКонтакте
    Скачать и многое другое... Подробности на сайте производителя
    Информация о фильме
    Название: Молодожёны
    Оригинальное название: We Got Married
    Год выхода: 2014-2015
    Жанр: ТВ-шоу
    В ролях: Ким Со Ын, Сон Чжэ Рим

    Описание:
    Шоу начинается с того, что создаются пары из звезд. Они должны жить вместе, вести быт (делить полочки для обуви=)) + каждую неделю им дают какое-нибудь задание, например: вместе сходить в спортзал, приготовить обед, познакомиться с родителями и т.д. Также они участвуют в других шоу, записывают совместные песни, участвуют в рекламе. Когда уходит одна пара, ее заменяют другой, потом выбывшая пара может вернуться и продолжить участие в проекте. В домах пар установлены видеокамеры, так же к ним приходят операторы и снимают всё, что происходит. Шоу очень забавное, веселое и романтичное, кроме главных героев в нем еще принимают участие другие знаменитости. C 20 сентября 2014 года к проекту присоединилась еще одна пара: актеры Сон Чжэ Рим и Ким Со Ын. И теперь мы будем следить за происходящим с этой милой парочкой. Пара стала победителем премии "2014 MBC Entertainment Awards", как "Лучшая пара".

    [img]http://imdb.snick.ru/ratefor/02/tt2377276.png[/img]
    Страна: Южная Корея
    Выпущено: MBC
    Продолжительность: ~ 25 мин. серия
    Перевод: Любительский, двухголосый, закадровый (РГ "XDUB DORAMA", перевод на русский: ФСГ "Мания", закадровый текст читали: Koldun02 & Yamatori, тайминг и работа со звуком: Tony Nakamura)

    Файл
    Кодек: V_MPEG4/ISO/AVC
    Качество: HDTVRip 720p
    Видео: 1280x720 (16:9), 25.000 FPS, 6290 kb/s
    Звук: FLAC, 48.0 kHz, 2ch, Variable Bit Rate
    Субтитры: нет



    MediaInfo
    General
    Unique ID                                : 227151217851153635815955097150737351066 (0xAAE3BBB560BB7FCDB6D40DB02AEC019A)
    Complete name                            : We.Got.Married.S04E01.720p.HDTVRip.mkv
    Format                                   : Matroska
    Format version                           : Version 4 / Version 2
    File size                                : 1.24 GiB
    Duration                                 : 25 min 4 s
    Overall bit rate mode                    : Variable
    Overall bit rate                         : 7 057 kb/s
    Encoded date                             : UTC 2017-06-06 18:19:16
    Writing application                      : mkvmerge v8.3.0 ("Over the Horizon") 64bit
    Writing library                          : libebml v1.3.1 + libmatroska v1.4.2

    Video
    ID                                       : 1
    Format                                   : AVC
    Format/Info                              : Advanced Video Codec
    Format profile                           : Main@L3.1
    Format settings, CABAC                   : Yes
    Format settings, ReFrames                : 2 frames
    Format settings, GOP                     : M=2, N=29
    Codec ID                                 : V_MPEG4/ISO/AVC
    Duration                                 : 25 min 4 s
    Bit rate                                 : 6 290 kb/s
    Width                                    : 1 280 pixels
    Height                                   : 720 pixels
    Display aspect ratio                     : 16:9
    Frame rate mode                          : Constant
    Frame rate                               : 25.000 FPS
    Color space                              : YUV
    Chroma subsampling                       : 4:2:0
    Bit depth                                : 8 bits
    Scan type                                : Progressive
    Bits/(Pixel*Frame)                       : 0.273
    Stream size                              : 1.10 GiB (89%)
    Language                                 : English
    Default                                  : Yes
    Forced                                   : No

    Audio
    ID                                       : 2
    Format                                   : FLAC
    Format/Info                              : Free Lossless Audio Codec
    Codec ID                                 : A_FLAC
    Duration                                 : 25 min 4 s
    Bit rate mode                            : Variable
    Bit rate                                 : 766 kb/s
    Channel(s)                               : 2 channels
    Channel positions                        : Front: L R
    Sampling rate                            : 48.0 kHz
    Frame rate                               : 11.719 FPS (4096 spf)
    Bit depth                                : 24 bits
    Stream size                              : 137 MiB (11%)
    Title                                    : Yamatori & Koldun02
    Writing library                          : libFLAC 20080709 (UTC 2008-07-09)
    Language                                 : Russian
    Default                                  : Yes
    Forced                                   : Yes

    Как скачать?
    1. Качаем UTorrent версии 2.0 и выше отсюда
    2. После установки, жмем на ссылку Скачать торрент.
    3. Открываем его через utorrent.
    4. Ждем пока подключатся участники.
    5. Качаем.


    Комментарии о Молодожёны / We Got Married [Сезон 04 | 01-01 серии из 38] | HDTVRip 720p
    Добавлять комментарии могут только зарегистрированные пользователи

    Зарегистрироваться или Войти


    Ближайшее в кино
    • Невидимый гость дата выхода 31 мая 2018Невидимый гость
      Дата выхода: 31 мая 2018
    • 762500|Красный воробей|31 мая 2018|200|300Красный воробей
      Дата выхода: 31 мая 2018
    • 843121|Как разговаривать с девушками на вечеринках|31 мая 2018|200|300Как разговаривать с девушками на вечеринках
      Дата выхода: 31 мая 2018
    • 965611|Истории призраков|31 мая 2018|200|300Истории призраков
      Дата выхода: 31 мая 2018
    • 1048530|Моя жизнь|31 мая 2018|200|300Моя жизнь
      Дата выхода: 31 мая 2018
    • 1030828|Псы под прикрытием|31 мая 2018|200|300Псы под прикрытием
      Дата выхода: 31 мая 2018
    • 927822|Два хвоста|31 мая 2018|200|300Два хвоста
      Дата выхода: 31 мая 2018
    • 1061480|От семьи не убежишь|31 мая 2018|200|300От семьи не убежишь
      Дата выхода: 31 мая 2018
    • 1057083|Сказки о маме|31 мая 2018|200|300Сказки о маме
      Дата выхода: 31 мая 2018
    • 924311|Мир Юрского периода 2|7 июня 2018|200|300Мир Юрского периода 2
      Дата выхода: 7 июня 2018
    • 1074222|Красотка на всю голову|7 июня 2018|200|300Красотка на всю голову
      Дата выхода: 7 июня 2018
    • 1009413|Лето|7 июня 2018|200|300Лето
      Дата выхода: 7 июня 2018
    • 935794|Первые|7 июня 2018|200|300Первые
      Дата выхода: 7 июня 2018
    • 1112132|Реинкарнация|7 июня 2018|200|300Реинкарнация
      Дата выхода: 7 июня 2018
    • 1118194|Решение о ликвидации|7 июня 2018|200|300Решение о ликвидации
      Дата выхода: 7 июня 2018
    Вверх