• Игры для PS4
  • Игры для PS3
  • Игры для XBOX360
  • Игры для PC
  • Игры для PS2
  • Игры для PSP
  • Для телефонов
  • Музыка
  • Книги / Журналы
  • Обои
  • Опрос
    Откуда Вы о нас узнали?
      0
    • От знакомых2,1,false,300,full
    • Из социальных сетей2,2,false,300,full
    • Из поисковых систем2,3,false,300,full
    • Другое2,4,false,300,full
    Статистика
    Всего онлайн -
    Гостей -
    Пользователей -
    Короли трекера
    Благодарности () Закрыть
    Информация о фильме
    Название: Отец Матвей
    Год выхода: 2013-2014
    Жанр: Детектив, криминал, мелодрама
    Режиссер: Валерий Девятилов
    В ролях: Владимир Колганов, Родион Галюченко, Виктория Адельфина, Максим Юдин, Иван Шмаков, Леонид Громов, Марина Волкова, Артём Федотов, Екатерина Молоховская, Олег Масленников-Войтов, Олег Чудницов, Юлия Кудояр, Пётр Баранчеев, Евгений Штырбул, Андрей Егоров (I), Андрей Гусев (I), Анастасия Лукьянова, Максим Радугин, Виталий Кудрявцев, Виктория Герасимова, Владимир Яковлев (II), Евгений Кожевников, Александр Пашков, Сергей Жарков, Ольга Филиппова, Наталья Щукина, Денис Сердюков, Руслан Ягудин, Денис Варенов, Алла Малкова, Юлия Железняк, Евгений Дакот, Мария Болонкина, Владимир Гориславец, Алиса Дмитриева, Игорь Фурманюк, Карина Разумовская, Эдуард Айткулов, Марина Богат

    О фильме: В приход маленького городка, надеясь на спокойную мирную жизнь, тишину маленьких улочек с тополями и вязами, приехал отец Матвей со своей семьей. Местечко тихое, внешне идеальное. Но мирная жизнь оказалась не такой уж и мирной и праведной, а доброжелательность местных жителей - искусно сделанной маской… Этот маленький город скрывает в себе достаточно страшные, интригующие, коварные и неприятные секреты, которые соседствуют с равнодушием и безразличием. И все это быстро разрушает жизни людей, которые тут живут. Отец Матвей сразу же пытается размотать этот необыкновенный клубок, однако постепенно все больше запутывается в паутине лабиринтов зла. Сможет ли отец Матвей помочь людям, которые сами не хотят принимать никакой помощи? Сможет ли он наказать зло или, лучше, перенаправить его на праведный путь? Что будет с самим отцом Матвеем и его семьей, которые не вписываются в привычный уклад этого места? Достаточно ли будет только лишь усилий доброго священника? Ведь отцу Матвею предстоит в одиночку разобраться, что же происходит в городе на самом деле, и, распутывая сложнейшие головоломки, привнести сюда свет.



    Страна: Россия
    Студия: Кинокомпания "Русское"
    Продолжительность: 15 x ~ 00:45:00
    Перевод: Не требуется

    Файл
    Кодек: AVC
    Качество: WEB-DL 720p
    Видео: MPEG-4 AVC, ~ 2442 Кбит/с, 1280x720
    Звук: AC3, 2 ch, 192 Кбит/с

    MI

    Общее
    Уникальный идентификатор         : 35345561098874295430880634552474245874 (0x1A974EB52F1D4E40DB134DD51B819AF2)
    Полное имя                       : C:UsersDOMDesktopОтец Матвей.2013-2014.WEB-DL (720p).Files-x�1 «Девятая заповедь».Отец Матвей.2013-2014.WEB-DL (720p).Files-x.mkv
    Формат                           : Matroska
    Размер файла                     : 860 Мбайт
    Продолжительность                : 44 м.
    Общий поток                      : 2687 Кбит/сек
    Программа кодирования            : Lavf56.36.100
    Библиотека кодирования           : Lavf56.36.100

    Видео
    Идентификатор                    : 1
    Формат                           : AVC
    Формат/Информация                : Advanced Video Codec
    Профиль формата                  : Main@L3.1
    Параметр CABAC формата           : Да
    Параметр ReFrames формата        : 3 кадра
    Идентификатор кодека             : V_MPEG4/ISO/AVC
    Продолжительность                : 44 м.
    Вид битрейта                     : Переменный
    Битрейт                          : 2442 Кбит/сек
    Максимальный битрейт             : 4000 Кбит/сек
    Ширина                           : 1280 пикс.
    Высота                           : 720 пикс.
    Соотношение сторон               : 16:9
    Частота кадров                   : 25,000 кадр/сек
    Стандарт вещания                 : PAL
    Цветовое пространство            : YUV
    Подвыборка цветности             : 4:2:0
    Битовая глубина                  : 8 бит
    Тип развёртки                    : Прогрессивная
    Бит/(Пиксели*Кадры)              : 0.106
    Размер потока                    : 782 Мбайт (91%)
    Язык                             : English

    Аудио
    Идентификатор                    : 2
    Формат                           : AC-3
    Формат/Информация                : Audio Coding 3
    Расширение режима                : CM (complete main)
    Идентификатор кодека             : A_AC3
    Продолжительность                : 44 м.
    Вид битрейта                     : Постоянный
    Битрейт                          : 192 Кбит/сек
    Каналы                           : 2 канала
    Расположение каналов             : Front: L R
    Частота                          : 44,1 КГц
    Битовая глубина                  : 16 бит
    Метод сжатия                     : С потерями
    Задержка видео                   : 1 м. 5 с.
    Размер потока                    : 61,5 Мбайт (7%)
    Язык                             : English / unСвернуть


    Скриншоты
    [screen]http://i95.fastpic.ru/big/2017/0607/c5/b2a75f7875e417584b34f6ead74461c5.jpg[/screen][screen]http://i94.fastpic.ru/big/2017/0607/6e/cec176c9ce4cf0378c52cc3bf111ac6e.jpg[/screen][screen]http://i96.fastpic.ru/big/2017/0607/e4/82932eed1886572bec9f20673145ade4.jpg[/screen][screen]http://i94.fastpic.ru/big/2017/0607/51/ad331d72f444adedfdddd924bde49951.jpg[/screen]Свернуть
    Похожие раздачи Искать похожие
    Инструкция по скачиванию
     1  Качаем uTorrent версии 2.0 и выше
     2  После установки, жмем выше под постером на ссылку Скачать [MediaGet] или Скачать .torrent
     3  Открываем скачанный файл через соответствующий клиент: MediaGet или uTorrent
     4  Ждем пока подключатся участники
     5  Качаем
    Комментарии о  Отец Матвей [Серии 01-15 из 20] | WEB-DL 720p 
    Ближайшее в кино
    Вверх