• Игры для PS4
  • Игры для PS3
  • Игры для XBOX360
  • Игры для PC
  • Игры для PS2
  • Игры для PSP
  • Для телефонов
  • Музыка
  • Книги/Журналы
  • Обои
  •  
    Опрос
    Откуда Вы о нас узнали?
      0
    • От знакомых2,1,false,300,full
    • Из социальных сетей2,2,false,300,full
    • Из поисковых систем2,3,false,300,full
    • Другое2,4,false,300,full
    Статистика
    Загрузка...
    Макс Стил / Max Steel | HDRip
    Статус  Проверено
    В закладки
    Модератор: Max

    Макс Стил / Max Steel | HDRip [Фильмы 2016] скачать торрентом/torrent бесплатно

    Год выхода
    Язык
    Закачал
    Аноним | 07 июня 2017 в 22ч 55м 42с
    Раздел
    Отзывов
    0
    Раздают: 0 Качают: 4 Скачали: 4 Размер: 417.51 MB
    Инфо о раздаче | Благодарности |
    0/5
    0
    0 5 0
    Поддержи нас — расскажи друзьям!
    Orbitum
    Новый интернет-браузер Быстрее загружает сайты Экономит интернет—трафик Меняет оформление страницы ВК Блокирует всю рекламу на сайтах Загружает торренты как

    µTorrent

    клиент
    Объеденяет все твои чаты из соц. сетей в один Проигрывает твою музыку не заходя во ВКонтакте
    Скачать и многое другое... Подробности на сайте производителя
    Информация о фильме
    Название: Макс Стил
    Оригинальное название: Max Steel
    Год выхода: 2016
    Жанр:  Фантастика, боевик, приключения
    Режиссер: Стюарт Хендлер
    В ролях: Бен Уинчелл, Джош Бренер, Мария Белло, Энди Гарсиа, Ана Виллафейн, Майк Дойл, Филлип ДеВона, Билли Слотер, Эл Митчелл, Лоуренс Као

    О фильме:
    Когда подросток Макс МакГрат обнаруживает, что его тело может генерировать наиболее мощную энергию во Вселенной, ему приходится встретиться с единственным существом, способным совладать с такой энергией — таинственным техно-органическим инопланетянином по имени Стил.



    Страна: Великобритания, США
    Студия: Dolphin Entertainment, Ingenious Media, Mattel Entertainment
    Продолжительность: 01:32:27
    Перевод: Дублированный | iTunes

    Файл
    Формат: MP4
    Качество: HDRip | КПК
    Видео: Н.264, 640x268 (2,40:1), 24.000 fps, 500 Kbps
    Звук: AAC LC, 48.0 KHz, 2 ch, 128 Kbps

    MI
    Общее
    Полное имя : C:UsersАлександрDesktopфильмMax.Steel.2016.ImperiaFilm.mp4
    Формат : MPEG-4
    Профиль формата : Base Media
    Идентификатор кодека : isom (isom/avc1/iso6)
    Размер файла : 418 Мбайт
    Продолжительность : 1 ч. 32 м.
    Режим общего битрейта : Переменный
    Общий поток : 631 Кбит/сек
    Дата кодирования : UTC 2017-06-07 18:19:39
    Дата пометки : UTC 2017-06-07 18:19:39

    Видео
    Идентификатор : 1
    Формат : AVC
    Формат/Информация : Advanced Video Codec
    Профиль формата : High@L4.1
    Параметр CABAC формата : Да
    Параметр ReFrames формата : 10 кадров
    Идентификатор кодека : avc1
    Идентификатор кодека/Информация : Advanced Video Coding
    Продолжительность : 1 ч. 32 м.
    Битрейт : 500 Кбит/сек
    Максимальный битрейт : 2357 Кбит/сек
    Ширина : 640 пикселей
    Высота : 268 пикселей
    Соотношение сторон : 2,40:1
    Режим частоты кадров : Постоянный
    Частота кадров : 24,000 кадра/сек
    Цветовое пространство : YUV
    Субдискретизация насыщенности : 4:2:0
    Битовая глубина : 8 бит
    Тип развёртки : Прогрессивная
    Бит/(Пиксели*Кадры) : 0.121
    Размер потока : 331 Мбайт (79%)
    Заголовок : 264@GPAC0.5.2-DEV-rev248-g39d5978-master
    Библиотека кодирования : x264 core 146 r2538 121396c
    Настройки программы : cabac=1 / ref=10 / deblock=1:-3:-3 / analyse=0x3:0x113 / me=umh / subme=11 / psy=1 / psy_rd=1.00:0.00 / mixed_ref=1 / me_range=48 / chroma_me=1 / trellis=2 / 8x8dct=1 / cqm=0 / deadzone=21,11 / fast_pskip=0 / chroma_qp_offset=-2 / threads=6 / lookahead_threads=1 / sliced_threads=0 / nr=0 / decimate=0 / interlaced=0 / bluray_compat=0 / constrained_intra=0 / bframes=10 / b_pyramid=2 / b_adapt=2 / b_bias=0 / direct=3 / weightb=1 / open_gop=0 / weightp=2 / keyint=240 / keyint_min=24 / scenecut=40 / intra_refresh=0 / rc_lookahead=40 / rc=2pass / mbtree=0 / bitrate=500 / ratetol=1.0 / qcomp=0.60 / qpmin=0 / qpmax=69 / qpstep=4 / cplxblur=20.0 / qblur=0.5 / vbv_maxrate=14000 / vbv_bufsize=14000 / nal_hrd=none / filler=0 / ip_ratio=1.40 / pb_ratio=1.30 / aq=1:1.00
    Дата кодирования : UTC 2017-06-07 18:19:39
    Дата пометки : UTC 2017-06-07 18:20:08

    Аудио
    Идентификатор : 2
    Формат : AAC
    Формат/Информация : Advanced Audio Codec
    Профиль формата : LC
    Идентификатор кодека : 40
    Продолжительность : 1 ч. 32 м.
    Вид битрейта : Переменный
    Битрейт : 128 Кбит/сек
    Максимальный битрейт : 204 Кбит/сек
    Каналы : 2 канала
    Расположение каналов : Front: L R
    Частота : 48,0 КГц
    Частота кадров : 46,875 кадров/сек (1024 spf)
    Метод сжатия : С потерями
    Размер потока : 84,4 Мбайт (20%)
    Дата кодирования : UTC 2017-06-07 14:47:19
    Дата пометки : UTC 2017-06-07 18:20:08


    Скриншоты
    [img]http://i95.fastpic.ru/big/2017/0607/4b/d3fe3de366b6a30547c3b96ae819e24b.jpg[/img][img]http://i94.fastpic.ru/big/2017/0607/e9/12f1ca0582d78a68bcb51d75e1c7cee9.jpg[/img][img]http://i93.fastpic.ru/big/2017/0607/41/75ae01f2f265ea42fd6d8f27c2a6c041.jpg[/img]

    [img]http://i92.fastpic.ru/big/2017/0607/13/b95dbaaac4313486dbe83036e04c2113.jpg[/img][img]http://i96.fastpic.ru/big/2017/0607/98/e689a07334f0566b303dc8938cc31098.jpg[/img][img]http://i96.fastpic.ru/big/2017/0607/69/8f72d32c0d1a9513d851b1517a8e1269.jpg[/img]


    [img]http://i91.fastpic.ru/big/2017/0430/ee/411863a07f401662e4197d6d41f556ee.gif[/img][img]http://i91.fastpic.ru/big/2017/0430/f8/cb297ab242a60d92522abbf9810f00f8.gif[/img]
    Еще похожие »

    Как скачать?
    1. Качаем UTorrent версии 2.0 и выше отсюда
    2. После установки, жмем на ссылку Скачать торрент.
    3. Открываем его через utorrent.
    4. Ждем пока подключатся участники.
    5. Качаем.


    Комментарии о Макс Стил / Max Steel | HDRip
    Добавлять комментарии могут только зарегистрированные пользователи

    Зарегистрироваться или Войти


    Ближайшее в кино
    • МУЛЬТ в кино. Выпуск №77. Команда мечты дата выхода 23 июня 2018МУЛЬТ в кино. Выпуск №77. Команда мечты
      Дата выхода: 23 июня 2018
    • 1162775|Кто украл Banksy|25 июня 2018|200|300Кто украл Banksy
      Дата выхода: 25 июня 2018
    • 1031219|План побега 2|28 июня 2018|200|300План побега 2
      Дата выхода: 28 июня 2018
    • 938461|Убийца 2. Против всех|28 июня 2018|200|300Убийца 2. Против всех
      Дата выхода: 28 июня 2018
    • 912012|Распрекрасный принц|28 июня 2018|200|300Распрекрасный принц
      Дата выхода: 28 июня 2018
    • 1015040|Во власти стихии|28 июня 2018|200|300Во власти стихии
      Дата выхода: 28 июня 2018
    • 759874|Ты водишь!|28 июня 2018|200|300Ты водишь!
      Дата выхода: 28 июня 2018
    • 1077873|Книжный клуб|28 июня 2018|200|300Книжный клуб
      Дата выхода: 28 июня 2018
    • 1047708|Инсомния|28 июня 2018|200|300Инсомния
      Дата выхода: 28 июня 2018
    • 1026748|Джим Пуговка и машинист Лукас|28 июня 2018|200|300Джим Пуговка и машинист Лукас
      Дата выхода: 28 июня 2018
    • 1038941|Осторожно: Грамп!|28 июня 2018|200|300Осторожно: Грамп!
      Дата выхода: 28 июня 2018
    • 977767|50 весенних дней|28 июня 2018|200|30050 весенних дней
      Дата выхода: 28 июня 2018
    • 1162806|Идеальный муж|4 июля 2018|200|300Идеальный муж
      Дата выхода: 4 июля 2018
    • 935940|Человек-муравей и Оса|5 июля 2018|200|300Человек-муравей и Оса
      Дата выхода: 5 июля 2018
    • 977435|Невидимка|5 июля 2018|200|300Невидимка
      Дата выхода: 5 июля 2018
    Вверх