• Игры для PS4
  • Игры для PS3
  • Игры для XBOX360
  • Игры для PC
  • Игры для PS2
  • Игры для PSP
  • Для телефонов
  • Музыка
  • Книги / Журналы
  • Обои
  • Опрос
    Откуда Вы о нас узнали?
      0
    • От знакомых2,1,false,300,full
    • Из социальных сетей2,2,false,300,full
    • Из поисковых систем2,3,false,300,full
    • Другое2,4,false,300,full
    Статистика
    Всего онлайн -
    Гостей -
    Пользователей -
    Короли трекера
    Благодарности () Закрыть
    Информация о фильме
    Название: Голос из камня
    Оригинальное название: Voice from the Stone
    Год выхода: 2017
    Жанр: Триллер, драма, детектив
    Режиссер: Эрик Д. Хауэлл
    В ролях: Эмилия Кларк, Мартон Чокаш, Катерина Мурино, Кейт Линдер, Ремо Джироне, Лиза Гастони, Эдвард Дринг, Джампьеро Джудика, Николь Кадедду, Антонелла Бритти

    О фильме:
    50-е годы прошлого века. Таинственный старинный замок в Тоскане. Сюда приезжает Верена, молодая няня, обладающая редким даром возвращать к нормальной жизни психологически травмированных детей. Она умеет найти с ними тесный контакт. Верена - последняя надежда 40-летнего вдовца Клауса, чей сын Джейкоб в течение нескольких месяцев, после смерти матери, не произнес ни слова. Оказывается, мальчик дал обет молчания до тех пор, пока дух матери не вернется. Очень скоро Верена начинает подозревать, что призрак умершей играет с ней в кошки-мышки, чтобы вселиться в ее тело. Возникшее между хозяином и девушкой влечение, перерастающее в подлинную страсть, ускоряет невероятную развязку...



    Страна: США, Италия
    Студия: Code 39 Films, Producer Capital Fund
    Продолжительность: 01:30:19
    Перевод(ы):
    #1: Дублированный | iTunes
    #2: Любительский одноголосый | BadBajo

    Файл
    Качество: BDRip 1080p
    Видео: MPEG-4 AVC, 1920x804, 10.5 Mbit/s, 23.976 fps
    Звук:
    Аудио #01: 48 kHz, AC3, 5.1, 384 Kbps | iTunes | RUS |[img]http://lostpix.com/img/2016-04/26/ecarul7mj2gcrjkf30af8u4tk.gif[/img]
    Аудио #02: 48 kHz, AC3, 5.1, 384 Kbps | BadBajo | RUS |[img]http://lostpix.com/img/2016-04/26/ecarul7mj2gcrjkf30af8u4tk.gif[/img]
    Аудио #03: 48 kHz, DTS, 5.1, 1510 Kbps | Оригинал |  ENG |[img]http://lostpix.com/img/2016-09/30/0icucyo5gq0qmwlibabcgmhiw.gif[/img]
    Субтитры: Английские

    [img]http://lostpix.com/img/2017-06/08/cik5dhqpvul39u6ec53wajg0i.png[/img][img]http://lostpix.com/img/2017-06/08/t72s9034daktv5o3pk8tm3m93.png[/img][img]http://lostpix.com/img/2017-06/08/17gvxcwxezl4x0a90zwixawvg.png[/img][img]http://lostpix.com/img/2017-06/08/267m79d3ezqhmdmbofzngxn6j.png[/img][img]http://lostpix.com/img/2017-06/08/vtkher0anm7lpzqfxriatxgib.png[/img]

    MI
    General
    Unique ID                   : 206487587882226632016459293108673020520 (0x9B581017E6195C29A4069B04617D8268)
    Complete name               : F:VideoVoice.from.the.Stone.2017.BDRip.1080p.ExKinoRay.mkv
    Format                      : Matroska
    Format version              : Version 4 / Version 2
    File size                   : 8.06 GiB
    Duration                    : 1 h 30 min
    Overall bit rate            : 12.8 Mb/s
    Encoded date                : UTC 2017-06-07 22:22:57
    Writing application         : mkvmerge v12.0.0 ("Trust / Lust") 64bit
    Writing library             : libebml v1.3.4 + libmatroska v1.4.5

    Video
    ID                          : 1
    Format                      : AVC
    Format/Info                 : Advanced Video Codec
    Format profile              : High@L4.1
    Format settings, CABAC      : Yes
    Format settings, ReFrames   : 5 frames
    Codec ID                    : V_MPEG4/ISO/AVC
    Duration                    : 1 h 30 min
    Bit rate                    : 10.5 Mb/s
    Width                       : 1 920 pixels
    Height                      : 804 pixels
    Display aspect ratio        : 2.40:1
    Frame rate mode             : Constant
    Frame rate                  : 23.976 (24000/1001) FPS
    Color space                 : YUV
    Chroma subsampling          : 4:2:0
    Bit depth                   : 8 bits
    Scan type                   : Progressive
    Bits/(Pixel*Frame)          : 0.284
    Stream size                 : 6.63 GiB (82%)
    Writing library             : x264 core 146 r2538 121396c
    Encoding settings           : cabac=1 / ref=5 / deblock=1:-3:-3 / analyse=0x3:0x133 / me=umh / subme=11 / psy=1 / psy_rd=1.05:0.05 / mixed_ref=1 / me_range=64 / chroma_me=1 / trellis=2 / 8x8dct=1 / cqm=0 / deadzone=21,11 / fast_pskip=0 / chroma_qp_offset=-3 / threads=6 / lookahead_threads=1 / sliced_threads=0 / nr=0 / decimate=0 / interlaced=0 / bluray_compat=0 / constrained_intra=0 / bframes=8 / b_pyramid=2 / b_adapt=2 / b_bias=0 / direct=3 / weightb=1 / open_gop=0 / weightp=2 / keyint=240 / keyint_min=23 / scenecut=40 / intra_refresh=0 / rc_lookahead=50 / rc=2pass / mbtree=0 / bitrate=10520 / ratetol=1.0 / qcomp=0.60 / qpmin=0 / qpmax=69 / qpstep=4 / cplxblur=20.0 / qblur=0.5 / vbv_maxrate=50000 / vbv_bufsize=62500 / nal_hrd=none / filler=0 / ip_ratio=1.40 / pb_ratio=1.30 / aq=1:0.80
    Language                    : English
    Default                     : Yes
    Forced                      : No

    Audio #1
    ID                          : 2
    Format                      : AC-3
    Format/Info                 : Audio Coding 3
    Format settings, Endianness : Big
    Codec ID                    : A_AC3
    Duration                    : 1 h 30 min
    Bit rate mode               : Constant
    Bit rate                    : 384 kb/s
    Channel(s)                  : 6 channels
    Channel positions           : Front: L C R, Side: L R, LFE
    Sampling rate               : 48.0 kHz
    Frame rate                  : 31.250 FPS (1536 spf)
    Bit depth                   : 16 bits
    Compression mode            : Lossy
    Stream size                 : 248 MiB (3%)
    Title                       : iTunes
    Language                    : Russian
    Service kind                : Complete Main
    Default                     : Yes
    Forced                      : No

    Audio #2
    ID                          : 3
    Format                      : AC-3
    Format/Info                 : Audio Coding 3
    Format settings, Endianness : Big
    Codec ID                    : A_AC3
    Duration                    : 1 h 30 min
    Bit rate mode               : Constant
    Bit rate                    : 384 kb/s
    Channel(s)                  : 6 channels
    Channel positions           : Front: L C R, Side: L R, LFE
    Sampling rate               : 48.0 kHz
    Frame rate                  : 31.250 FPS (1536 spf)
    Bit depth                   : 16 bits
    Compression mode            : Lossy
    Stream size                 : 248 MiB (3%)
    Title                       : AVO [BadBajo]
    Language                    : Russian
    Service kind                : Complete Main
    Default                     : No
    Forced                      : No

    Audio #3
    ID                          : 4
    Format                      : DTS
    Format/Info                 : Digital Theater Systems
    Mode                        : 16
    Format settings, Endianness : Big
    Codec ID                    : A_DTS
    Duration                    : 1 h 30 min
    Bit rate mode               : Constant
    Bit rate                    : 1 510 kb/s
    Channel(s)                  : 6 channels
    Channel positions           : Front: L C R, Side: L R, LFE
    Sampling rate               : 48.0 kHz
    Frame rate                  : 93.750 FPS (512 spf)
    Bit depth                   : 24 bits
    Compression mode            : Lossy
    Stream size                 : 975 MiB (12%)
    Title                       : Original
    Language                    : English
    Default                     : No
    Forced                      : No

    Text
    ID                          : 5
    Format                      : UTF-8
    Codec ID                    : S_TEXT/UTF8
    Codec ID/Info               : UTF-8 Plain Text
    Duration                    : 1 h 24 min
    Bit rate                    : 22 b/s
    Count of elements           : 631
    Stream size                 : 14.0 KiB (0%)
    Title                       : Full
    Language                    : English
    Default                     : No
    Forced                      : No

    Menu
    00:00:00.000                : en:Chapter 1
    00:03:27.958                : en:Chapter 2
    00:11:29.856                : en:Chapter 3
    00:19:31.212                : en:Chapter 4
    00:23:57.686                : en:Chapter 5
    00:31:03.236                : en:Chapter 6
    00:39:39.919                : en:Chapter 7
    00:44:53.941                : en:Chapter 8
    00:49:19.957                : en:Chapter 9
    00:53:35.754                : en:Chapter 10
    00:57:21.146                : en:Chapter 11
    01:03:48.116                : en:Chapter 12
    01:09:37.215                : en:Chapter 13
    01:14:00.102                : en:Chapter 14
    01:21:21.251                : en:Chapter 15
    01:24:57.968                : en:Chapter 16Свернуть


    [img]http://lostpix.com/img/2017-03/22/pa3kns75lpl0e564ik1il8ow9.gif[/img]
    Похожие раздачи Искать похожие
    Инструкция по скачиванию
     1  Качаем uTorrent версии 2.0 и выше
     2  После установки, жмем выше под постером на ссылку Скачать [MediaGet] или Скачать .torrent
     3  Открываем скачанный файл через соответствующий клиент: MediaGet или uTorrent
     4  Ждем пока подключатся участники
     5  Качаем
    Комментарии о  Голос из камня / Voice from the Stone | BDRip 1080p 
    Ближайшее в кино
    Вверх