• Игры для PS4
  • Игры для PS3
  • Игры для XBOX360
  • Игры для PC
  • Игры для PS2
  • Игры для PSP
  • Для телефонов
  • Музыка
  • Книги / Журналы
  • Обои
  • Опрос
    Откуда Вы о нас узнали?
      0
    • От знакомых2,1,false,300,full
    • Из социальных сетей2,2,false,300,full
    • Из поисковых систем2,3,false,300,full
    • Другое2,4,false,300,full
    Статистика
    Всего онлайн -
    Гостей -
    Пользователей -
    Короли трекера
    Благодарности () Закрыть
    Информация о фильме
    Название: Форсаж 8
    Оригинальное название: The Fate of the Furious
    Год выпуска: 2017
    Жанр:  Боевик, триллер, криминал
    Выпущено: США, One Race Films, Original Film, Пифагор, Universal Pictures
    Режиссер: Ф. Гэри Грей
    В ролях: Вин Дизель, Дуэйн Джонсон, Джейсон Стэйтем, Мишель Родригес, Тайриз Гибсон, Лудакрис, Натали Эммануэль, Курт Расселл, Скотт Иствуд, Шарлиз Терон

    Описание: После успешной операции по поимке Деккарда Шоу команда Доминика Торетто отправляется в Нью-Йорк, чтобы помочь агенту правительственной службы под кодовым именем «Мистер Никто» (Курт Рассел) разобраться с новой проблемой. Прежде, чем состоится самая крутая гонка в истории Большого Яблока, им придется побывать на Кубе с промежуточной миссией. На помощь Торетто приходит новый сотрудник из силовых структур (Скотт Иствуд), ну а противник в этот раз очень необычный – это очень умная, расчетливая и чертовски соблазнительная злодейка в исполнении Шарлиз Терон.



    Страна: США
    Студия: One Race Films, Original Film, Пифагор, Universal Pictures
    Продолжительность: 02:15:57
    Перевод: Дублированный | iTunes
    Субтитры: Русские (хардсаб на надписи), английские

    Файл
    Формат: MKV
    Качество: WEB-DLRip-AVC
    Видео: AVC, 1024х424 (2.40:1), 1712 kbps, 23,976 fps, 0,164 bpp
    Аудио1: 48 kHz, AC3, 5.1, 384 Kbps | RUS |
    Аудио2: 48 kHz, AC3, 2.0, 192 Kbps | ENG |

    Навигация по главам: есть

    MI
    General
    Unique ID                                : 173778926089578159192251314646298717478 (0x82BC9A8F1800957FAD5DD33355DCED26)
    Complete name                            : D:Forsag.8.2017.D.WEB-DLRip.AVC.ExKinoRay.mkv
    Format                                   : Matroska
    Format version                           : Version 2
    File size                                : 2.17 GiB
    Duration                                 : 2 h 15 min
    Overall bit rate                         : 2 287 kb/s
    Movie name                               : Forsag 8 2017 from ExKinoRay
    Encoded date                             : UTC 2017-06-08 01:08:10
    Writing application                      : mkvmerge v5.8.0 ("No Sleep / Pillow") built on Sep  2 2012 15:37:04
    Writing library                          : libebml v1.2.3 + libmatroska v1.3.0

    Video
    ID                                       : 1
    Format                                   : AVC
    Format/Info                              : Advanced Video Codec
    Format profile                           : High@L4.1
    Format settings, CABAC                   : Yes
    Format settings, ReFrames                : 10 frames
    Codec ID                                 : V_MPEG4/ISO/AVC
    Duration                                 : 2 h 15 min
    Bit rate                                 : 1 712 kb/s
    Width                                    : 1 024 pixels
    Height                                   : 424 pixels
    Display aspect ratio                     : 2.40:1
    Frame rate mode                          : Constant
    Frame rate                               : 23.976 (23976/1000) FPS
    Color space                              : YUV
    Chroma subsampling                       : 4:2:0
    Bit depth                                : 8 bits
    Scan type                                : Progressive
    Bits/(Pixel*Frame)                       : 0.164
    Stream size                              : 1.58 GiB (73%)
    Title                                    : Enigma
    Writing library                          : x264 core 144 r2525 40bb568
    Encoding settings                        : cabac=1 / ref=10 / deblock=1:-3:-3 / analyse=0x3:0x113 / me=umh / subme=10 / psy=1 / psy_rd=1.05:0.10 / mixed_ref=1 / me_range=32 / chroma_me=1 / trellis=2 / 8x8dct=1 / cqm=0 / deadzone=21,11 / fast_pskip=1 / chroma_qp_offset=-3 / threads=12 / lookahead_threads=2 / sliced_threads=0 / nr=0 / decimate=0 / interlaced=0 / bluray_compat=0 / constrained_intra=0 / bframes=9 / b_pyramid=2 / b_adapt=2 / b_bias=0 / direct=3 / weightb=1 / open_gop=0 / weightp=2 / keyint=240 / keyint_min=23 / scenecut=40 / intra_refresh=0 / rc_lookahead=40 / rc=2pass / mbtree=0 / bitrate=1712 / ratetol=1.0 / qcomp=0.60 / qpmin=0 / qpmax=51 / qpstep=4 / cplxblur=20.0 / qblur=0.5 / vbv_maxrate=50000 / vbv_bufsize=62500 / nal_hrd=none / filler=0 / ip_ratio=1.40 / pb_ratio=1.30 / aq=1:1.00
    Language                                 : English
    Default                                  : Yes
    Forced                                   : No
    Color range                              : Limited
    Color primaries                          : BT.709
    Transfer characteristics                 : BT.709
    Matrix coefficients                      : BT.709

    Audio #1
    ID                                       : 2
    Format                                   : AC-3
    Format/Info                              : Audio Coding 3
    Mode extension                           : CM (complete main)
    Format settings, Endianness              : Big
    Codec ID                                 : A_AC3
    Duration                                 : 2 h 15 min
    Bit rate mode                            : Constant
    Bit rate                                 : 384 kb/s
    Channel(s)                               : 6 channels
    Channel positions                        : Front: L C R, Side: L R, LFE
    Sampling rate                            : 48.0 kHz
    Frame rate                               : 31.250 FPS (1536 spf)
    Compression mode                         : Lossy
    Stream size                              : 373 MiB (17%)
    Title                                    : iTunes
    Language                                 : Russian
    Default                                  : Yes
    Forced                                   : No

    Audio #2
    ID                                       : 3
    Format                                   : AC-3
    Format/Info                              : Audio Coding 3
    Mode extension                           : CM (complete main)
    Format settings, Endianness              : Big
    Codec ID                                 : A_AC3
    Duration                                 : 2 h 15 min
    Bit rate mode                            : Constant
    Bit rate                                 : 192 kb/s
    Channel(s)                               : 2 channels
    Channel positions                        : Front: L R
    Sampling rate                            : 48.0 kHz
    Frame rate                               : 31.250 FPS (1536 spf)
    Compression mode                         : Lossy
    Stream size                              : 187 MiB (8%)
    Language                                 : English
    Default                                  : No
    Forced                                   : No

    Text
    ID                                       : 4
    Format                                   : UTF-8
    Codec ID                                 : S_TEXT/UTF8
    Codec ID/Info                            : UTF-8 Plain Text
    Language                                 : English
    Default                                  : No
    Forced                                   : No

    Menu
    00:00:00.000                             : en:1
    00:13:09.914                             : en:2
    00:20:31.772                             : en:3
    00:26:39.639                             : en:4
    00:32:27.778                             : en:5
    00:36:41.573                             : en:6
    00:43:36.613                             : en:7
    00:47:46.779                             : en:8
    00:56:01.732                             : en:9
    01:04:09.302                             : en:10
    01:09:09.060                             : en:11
    01:13:25.274                             : en:12
    01:21:26.713                             : en:13
    01:29:30.947                             : en:14
    01:35:13.456                             : en:15
    01:39:56.780                             : en:16
    01:45:01.709                             : en:17
    01:53:02.856                             : en:18
    02:01:52.260                             : en:19
    02:06:46.095                             : en:20
    Свернуть


    [img]http://s018.radikal.ru/i503/1706/18/234fdb486117t.jpg[/img][img]http://s48.radikal.ru/i122/1706/4c/f63ac809f4c3t.jpg[/img][img]http://s03.radikal.ru/i176/1706/dd/92c6e58c2288t.jpg[/img][img]http://s019.radikal.ru/i600/1706/c3/700edcd55532t.jpg[/img][img]http://s018.radikal.ru/i500/1706/05/852df6aaa269t.jpg[/img]
    Похожие раздачи Искать похожие
    Инструкция по скачиванию
     1  Качаем uTorrent версии 2.0 и выше
     2  После установки, жмем выше под постером на ссылку Скачать [MediaGet] или Скачать .torrent
     3  Открываем скачанный файл через соответствующий клиент: MediaGet или uTorrent
     4  Ждем пока подключатся участники
     5  Качаем
    Комментарии о  Форсаж 8 / The Fate of the Furious | WEB-DLRip-AVC 
    Ближайшее в кино
    Вверх