• Игры для PS4
  • Игры для PS3
  • Игры для XBOX360
  • Игры для PC
  • Игры для PS2
  • Игры для PSP
  • Для телефонов
  • Музыка
  • Книги/Журналы
  • Обои
  •  
    Опрос
    Удобен ли сайт в использовании?
      0
    • Очень удобен, все понятно1,1,false,300,full
    • Удобен1,2,false,300,full
    • Средне1,3,false,300,full
    • Неудобен, трудно ориентироваться1,4,false,300,full
    • Совсем неудобен1,5,false,300,full
    Статистика
    Загрузка...
    Живое / Life | BDRip 720p
    Статус  Проверено
    В закладки
    Модератор: Max

    Живое / Life | BDRip 720p [Фильмы 2017] скачать торрентом/torrent бесплатно

    Год выхода
    Язык
    Закачал
    Аноним | 08 июня 2017 в 09ч 03м 26с
    Раздел
    Отзывов
    0
    Раздают: 42 Качают: 5 Скачали: 153 Размер: 5.06 GB
    Инфо о раздаче | Благодарности |
    0/5
    0
    0 5 0
    Поддержи нас — расскажи друзьям!
    Orbitum
    Новый интернет-браузер Быстрее загружает сайты Экономит интернет—трафик Меняет оформление страницы ВК Блокирует всю рекламу на сайтах Загружает торренты как

    µTorrent

    клиент
    Объеденяет все твои чаты из соц. сетей в один Проигрывает твою музыку не заходя во ВКонтакте
    Скачать и многое другое... Подробности на сайте производителя
    Информация о фильме
    Название: Живое
    Оригинальное название: Life
    Страна: США
    Студия: Columbia Pictures, Skydance Productions, Sony Pictures Entertainment (SPE)
    Жанр:  ужасы, фантастика, триллер
    Год выпуска: 2017
    Продолжительность: 01:43:58

    Перевод: Профессиональный (дублированный) iTunes
    Субтитры: Rus, Ukr, Eng
    Оригинальная аудиодорожка: английский

    Режиссер: Даниэль Эспиноса / Daniel Espinosa

    В ролях: Джейк Джилленхол, Ребекка Фергюсон, Райан Рейнольдс, Ольга Дыховичная, Эрион Бакаре, Хироюки Санада, Наоко Мори, Александр Нгуйен, Камиль Уоррен-Тейлор, Хиу Ун-Син

    Описание: Группа исследователей с международного космического корабля обнаруживает жизнь на Марсе. Они еще не подозревают, какие события повлечет за собой их открытие.

    [img]http://i64.fastpic.ru/big/2014/0916/7d/9b3cf021f20f4cf5f91f0b627fcbe57d.gif[/img]


    Тип релиза: BDRip 720p
    Контейнер: MKV

    Видео: MPEG-4 AVC, 5000 Кбит/с, 1280x536, 23,976 fps
    Аудио: Rus, AC3, 384 kb/s (6 ch), 48 kHz
    Аудио 2: Eng, DTS, 1510 kb/s (6 ch), 48 kHz
    Формат субтитров: softsub (SRT)
    MediaInfo

    x264 [info]: frame I:1839  Avg QP:12.57  size:115592
    x264 [info]: frame P:49912 Avg QP:14.31  size: 52341
    x264 [info]: frame B:145890 Avg QP:14.89  size: 22942

    Format                         : Matroska
    Format version                 : Version 4 / Version 2
    File size                      : 5.06 GiB
    Duration                       : 1 h 43 min
    Overall bit rate               : 6 961 kb/s
    Movie name                     : Живое. (Tonik)
    Encoded date                   : UTC 2017-06-08 05:33:57
    Writing application            : mkvmerge v7.1.0 ("Good Love") 64bit built on Jul 27 2014 13:06:55
    Writing library                : libebml v1.3.0 + libmatroska v1.4.1

    Video
    ID                             : 1
    Format                         : AVC
    Format/Info                    : Advanced Video Codec
    Format profile                 : High@L4.1
    Format settings, CABAC         : Yes
    Format settings, ReFrames      : 12 frames
    Codec ID                       : V_MPEG4/ISO/AVC
    Duration                       : 1 h 43 min
    Bit rate                       : 5 000 kb/s
    Width                          : 1 280 pixels
    Height                         : 536 pixels
    Display aspect ratio           : 2.40:1
    Frame rate mode                : Constant
    Frame rate                     : 23.976 (24000/1001) FPS
    Color space                    : YUV
    Chroma subsampling             : 4:2:0
    Bit depth                      : 8 bits
    Scan type                      : Progressive
    Bits/(Pixel*Frame)             : 0.304
    Stream size                    : 3.68 GiB (73%)
    Writing library                : x264 core 148 r2665kMod a01e339
    Encoding settings              : cabac=1 / ref=12 / deblock=1:-3:-3 / analyse=0x3:0x133 / me=umh / subme=11 / psy=1 / fade_compensate=0.00 / psy_rd=1.05:0.00 / mixed_ref=1 / me_range=32 / chroma_me=1 / trellis=2 / 8x8dct=1 / cqm=0 / deadzone=21,11 / fast_pskip=0 / chroma_qp_offset=-2 / threads=17 / lookahead_threads=2 / sliced_threads=0 / nr=0 / decimate=0 / interlaced=0 / bluray_compat=0 / constrained_intra=0 / fgo=0 / bframes=8 / b_pyramid=2 / b_adapt=2 / b_bias=0 / direct=3 / weightb=1 / open_gop=0 / weightp=2 / keyint=240 / keyint_min=24 / scenecut=40 / intra_refresh=0 / rc=2pass / mbtree=0 / bitrate=5000 / ratetol=1.0 / qcomp=0.70 / qpmin=0 / qpmax=69 / qpstep=4 / cplxblur=20.0 / qblur=0.5 / ip_ratio=1.20 / pb_ratio=1.20 / aq=3:0.85
    Language                       : English
    Default                        : Yes
    Forced                         : No

    Audio #1
    ID                             : 2
    Format                         : AC-3
    Format/Info                    : Audio Coding 3
    Format settings, Endianness    : Big
    Codec ID                       : A_AC3
    Duration                       : 1 h 43 min
    Bit rate mode                  : Constant
    Bit rate                       : 384 kb/s
    Channel(s)                     : 6 channels
    Channel positions              : Front: L C R, Side: L R, LFE
    Sampling rate                  : 48.0 kHz
    Frame rate                     : 31.250 FPS (1536 spf)
    Bit depth                      : 16 bits
    Compression mode               : Lossy
    Stream size                    : 286 MiB (6%)
    Title                          : iTunes
    Language                       : Russian
    Service kind                   : Complete Main
    Default                        : Yes
    Forced                         : No

    Audio #2
    ID                             : 3
    Format                         : DTS
    Format/Info                    : Digital Theater Systems
    Mode                           : 16
    Format settings, Endianness    : Big
    Codec ID                       : A_DTS
    Duration                       : 1 h 43 min
    Bit rate mode                  : Constant
    Bit rate                       : 1 509 kb/s
    Channel(s)                     : 6 channels
    Channel positions              : Front: L C R, Side: L R, LFE
    Sampling rate                  : 48.0 kHz
    Frame rate                     : 93.750 FPS (512 spf)
    Bit depth                      : 16 bits
    Compression mode               : Lossy
    Stream size                    : 1.10 GiB (22%)
    Language                       : English
    Default                        : No
    Forced                         : No

    Text #1
    ID                             : 4
    Format                         : UTF-8
    Codec ID                       : S_TEXT/UTF8
    Codec ID/Info                  : UTF-8 Plain Text
    Duration                       : 1 h 9 min
    Bit rate                       : 2 b/s
    Count of elements              : 26
    Stream size                    : 1.18 KiB (0%)
    Title                          : Forced
    Language                       : Russian
    Default                        : Yes
    Forced                         : No

    Text #2
    ID                             : 5
    Format                         : UTF-8
    Codec ID                       : S_TEXT/UTF8
    Codec ID/Info                  : UTF-8 Plain Text
    Duration                       : 1 h 41 min
    Bit rate                       : 73 b/s
    Count of elements              : 1128
    Stream size                    : 54.5 KiB (0%)
    Language                       : Russian
    Default                        : No
    Forced                         : No

    Text #3
    ID                             : 6
    Format                         : UTF-8
    Codec ID                       : S_TEXT/UTF8
    Codec ID/Info                  : UTF-8 Plain Text
    Duration                       : 1 h 41 min
    Bit rate                       : 69 b/s
    Count of elements              : 1126
    Stream size                    : 51.3 KiB (0%)
    Language                       : Ukrainian
    Default                        : No
    Forced                         : No

    Text #4
    ID                             : 7
    Format                         : UTF-8
    Codec ID                       : S_TEXT/UTF8
    Codec ID/Info                  : UTF-8 Plain Text
    Duration                       : 49 min 18 s
    Bit rate                       : 0 b/s
    Count of elements              : 15
    Stream size                    : 282 Bytes (0%)
    Title                          : Forced
    Language                       : English
    Default                        : No
    Forced                         : No

    Text #5
    ID                             : 8
    Format                         : UTF-8
    Codec ID                       : S_TEXT/UTF8
    Codec ID/Info                  : UTF-8 Plain Text
    Duration                       : 1 h 31 min
    Bit rate                       : 46 b/s
    Count of elements              : 1105
    Stream size                    : 30.9 KiB (0%)
    Language                       : English
    Default                        : No
    Forced                         : No

    Menu
    00:00:00.000                   : en:00:00:00.000
    00:09:32.864                   : en:00:09:32.864
    00:13:13.084                   : en:00:13:13.084
    00:15:36.894                   : en:00:15:36.894
    00:19:35.341                   : en:00:19:35.341
    00:24:57.454                   : en:00:24:57.454
    00:34:36.992                   : en:00:34:36.992
    00:40:45.109                   : en:00:40:45.109
    00:43:59.303                   : en:00:43:59.303
    00:52:21.805                   : en:00:52:21.805
    00:58:33.927                   : en:00:58:33.927
    01:06:37.785                   : en:01:06:37.785
    01:11:43.257                   : en:01:11:43.257
    01:17:50.875                   : en:01:17:50.875
    01:22:39.621                   : en:01:22:39.621
    01:28:34.309                   : en:01:28:34.309



    Скриншоты

    [img]http://i3.imageban.ru/out/2017/06/08/714094923d06c01f57e861ef5a408529.png[/img][img]http://i6.imageban.ru/out/2017/06/08/bfdd1140e6fc3defe14d26891c5d0864.png[/img][img]http://i5.imageban.ru/out/2017/06/08/3c0ec48fde33e9757a172367a8eef5a4.png[/img][img]http://i6.imageban.ru/out/2017/06/08/fccde994303d0522b08d50e67e6843ad.png[/img]
    Еще похожие »

    Как скачать?
    1. Качаем UTorrent версии 2.0 и выше отсюда
    2. После установки, жмем на ссылку Скачать торрент.
    3. Открываем его через utorrent.
    4. Ждем пока подключатся участники.
    5. Качаем.


    Комментарии о Живое / Life | BDRip 720p
    Добавлять комментарии могут только зарегистрированные пользователи

    Зарегистрироваться или Войти


    Ближайшее в кино
    • Примадонна дата выхода 18 октября 2018Примадонна
      Дата выхода: 18 октября 2018
    • 885317|Ученик чудовища|18 октября 2018|200|300Ученик чудовища
      Дата выхода: 18 октября 2018
    • 472369|Хэллоуин|18 октября 2018|200|300Хэллоуин
      Дата выхода: 18 октября 2018
    • 1005852|Дикая жизнь|18 октября 2018|200|300Дикая жизнь
      Дата выхода: 18 октября 2018
    • 696499|Галвестон|18 октября 2018|200|300Галвестон
      Дата выхода: 18 октября 2018
    • 1111886|Лукас|18 октября 2018|200|300Лукас
      Дата выхода: 18 октября 2018
    • 1045555|Вечная жизнь Александра Христофорова|18 октября 2018|200|300Вечная жизнь Александра Христофорова
      Дата выхода: 18 октября 2018
    • 1112943|Шестой пост|18 октября 2018|200|300Шестой пост
      Дата выхода: 18 октября 2018
    • 1044626|Тайна магазина игрушек|18 октября 2018|200|300Тайна магазина игрушек
      Дата выхода: 18 октября 2018
    • 629086|Лягушонок Риббит|18 октября 2018|200|300Лягушонок Риббит
      Дата выхода: 18 октября 2018
    • 991817|Закат|18 октября 2018|200|300Закат
      Дата выхода: 18 октября 2018
    • 1020860|Безупречная жизнь|18 октября 2018|200|300Безупречная жизнь
      Дата выхода: 18 октября 2018
    • 968603|Зимние братья|18 октября 2018|200|300Зимние братья
      Дата выхода: 18 октября 2018
    • 1008554|Слоны могут играть в футбол|18 октября 2018|200|300Слоны могут играть в футбол
      Дата выхода: 18 октября 2018
    • 939290|Прогулка по Риму|18 октября 2018|200|300Прогулка по Риму
      Дата выхода: 18 октября 2018
    Вверх