• Игры для PS4
  • Игры для PS3
  • Игры для XBOX360
  • Игры для PC
  • Игры для PS2
  • Игры для PSP
  • Для телефонов
  • Музыка
  • Книги / Журналы
  • Обои
  • Опрос
    Откуда Вы о нас узнали?
      0
    • От знакомых2,1,false,300,full
    • Из социальных сетей2,2,false,300,full
    • Из поисковых систем2,3,false,300,full
    • Другое2,4,false,300,full
    Статистика
    Всего онлайн -
    Гостей -
    Пользователей -
    Короли трекера
    
    Благодарности () Закрыть
    Название: Модель Сталина
    Страна: Россия
    Режиссер: Красная линия
    Год выхода: 2010
    Жанр:  Документальный
    Продолжительность: 00:26:15 | 00:29:52 | 00:25:32 | 00:32:15
    Перевод: Не требуется

    О фильме: Они были уверены, что мир, который они построят, будет большим, самостоятельным и сильным. Они точно знали, что этот мир им придется оберегать и защищать и были к этому готовы. Но для начала его предстояло построить. А как? Никто в мире такого еще никогда не строил. Создатель первого в мире социалистического государства Владимир Ленин смоделировал такой мир, а Иосиф Сталин претворил эту модель в жизнь. И у них получилось. И появилась могучая страна с лучшими в мире людьми. Экономическая модель Сталина была совершенна, она позволила в кратчайшие сроки сделать из отсталой аграрной страны индустриальную державу, и затем мирового лидера.

    Список серий:
    1) Индустриализация
    2) Слагаемые успеха
    3) Испытание войной
    4) Новые возможности

    Формат: MPEG-4
    Качество: WEB-DL
    Видео: 1280x720, 25 fps, ~2000 kbps
    Аудио: 44 kHz, ACC, 2, 126 Kbps

    Скриншоты
    [screen]http://i92.fastpic.ru/big/2017/0725/45/aa4f005ba5322e6189ec7c77831df545.jpg[/screen][screen]http://i92.fastpic.ru/big/2017/0725/cd/c18f236bb086a798406537a4962295cd.jpg[/screen][screen]http://i92.fastpic.ru/big/2017/0725/df/1f6e17a965f4d8240ce1629c82446cdf.jpg[/screen][screen]http://i92.fastpic.ru/big/2017/0725/0f/ebe513b6283e0cf515894aebc15f7e0f.jpg[/screen][screen]http://i92.fastpic.ru/big/2017/0725/bf/6e5278f654236e7245ea8bdecd46b6bf.jpg[/screen]Свернуть

    MediaInfo
    Format                         : MPEG-4
    Format profile                 : Base Media / Version 2
    Codec ID                       : mp42 (isom/mp42)
    File size                      : 387 MiB
    Duration                       : 32 min 15 s
    Overall bit rate mode          : Variable
    Overall bit rate               : 1 678 kb/s
    Encoded date                   : UTC 2016-08-26 07:36:10
    Tagged date                    : UTC 2016-08-26 07:36:10
    gsst                           : 0
    gstd                           : 1935452

    Video
    ID                             : 1
    Format                         : AVC
    Format/Info                    : Advanced Video Codec
    Format profile                 : Main@L3.1
    Format settings, CABAC         : Yes
    Format settings, ReFrames      : 3 frames
    Codec ID                       : avc1
    Codec ID/Info                  : Advanced Video Coding
    Duration                       : 32 min 15 s
    Bit rate                       : 1 549 kb/s
    Width                          : 1 280 pixels
    Height                         : 720 pixels
    Display aspect ratio           : 16:9
    Frame rate mode                : Constant
    Frame rate                     : 25.000 FPS
    Color space                    : YUV
    Chroma subsampling             : 4:2:0
    Bit depth                      : 8 bits
    Scan type                      : Progressive
    Bits/(Pixel*Frame)             : 0.067
    Stream size                    : 357 MiB (92%)
    Title                          : ISO Media file produced by Google Inc.
    Encoded date                   : UTC 2016-08-26 07:36:10
    Tagged date                    : UTC 2016-08-26 07:36:10
    Color range                    : Limited
    Color primaries                : BT.709
    Transfer characteristics       : BT.709
    Matrix coefficients            : BT.709

    Audio
    ID                             : 2
    Format                         : AAC
    Format/Info                    : Advanced Audio Codec
    Format profile                 : LC
    Codec ID                       : 40
    Duration                       : 32 min 15 s
    Source duration                : 32 min 15 s
    Bit rate mode                  : Variable
    Bit rate                       : 126 kb/s
    Channel(s)                     : 2 channels
    Channel positions              : Front: L R
    Sampling rate                  : 44.1 kHz
    Frame rate                     : 43.066 FPS (1024 spf)
    Compression mode               : Lossy
    Stream size                    : 29.0 MiB (7%)
    Source stream size             : 29.0 MiB (7%)
    Title                          : ISO Media file produced by Google Inc.
    Encoded date                   : UTC 2016-08-26 07:36:10
    Tagged date                    : UTC 2016-08-26 07:36:10Свернуть
    Похожие раздачи Искать похожие
    Инструкция по скачиванию
     1  Качаем uTorrent версии 2.0 и выше
     2  После установки, жмем выше под постером на ссылку Скачать [MediaGet] или Скачать .torrent
     3  Открываем скачанный файл через соответствующий клиент: MediaGet или uTorrent
     4  Ждем пока подключатся участники
     5  Качаем
    Комментарии о  Модель Сталина [Серии 01-04 из 04] | WEB-DL 720p 
    Ближайшее в кино
    Вверх