• Игры для PS4
  • Игры для PS3
  • Игры для XBOX360
  • Игры для PC
  • Игры для PS2
  • Игры для PSP
  • Для телефонов
  • Музыка
  • Книги / Журналы
  • Обои
  • Опрос
    Откуда Вы о нас узнали?
      0
    • От знакомых2,1,false,300,full
    • Из социальных сетей2,2,false,300,full
    • Из поисковых систем2,3,false,300,full
    • Другое2,4,false,300,full
    Статистика
    Всего онлайн -
    Гостей -
    Пользователей -
    Короли трекера
    Благодарности () Закрыть
    Исполнитель: Лолита Милявская
    Жанр:  POP
    Год выпуска: 2017
    Продолжительность: 00:51:45

    Описание:  В гости к Евгению Маргулису пришла популярная эстрадная певица Лолита. Она рассказала о своем детстве, образовании, об отношении к рок-н-роллу, поделилась своими эмоциями от знакомства с Rammstein, исполнила свои лучшие хиты, а также преподнесла публике большой сюрприз — новую песню.

    Формат: MPG
    Качество: DVB
    Видео кодек: MPEG-2
    Аудио кодек: MP2
    Видео: MPEG-2,~2900 Kbps,720x576@1024x576 (16:9), 25fps
    Аудио: MP2, 2 ch, 128 Kbps, 48000Hz

    MedaInfo
    Lolita_16.09.17.mpg
    Format                                   : MPEG-PS
    File size                                : 1.11 GiB
    Duration                                 : 51mn 44s
    Overall bit rate mode                    : Variable
    Overall bit rate                         : 3 068 Kbps

    Video
    ID                                       : 224 (0xE0)
    Format                                   : MPEG Video
    Format version                           : Version 2
    Format profile                           : Main@Main
    Format settings, BVOP                    : Yes
    Format settings, Matrix                  : Custom
    Format settings, GOP                     : M=3, N=12
    Format settings, picture structure       : Frame
    Duration                                 : 51mn 44s
    Bit rate mode                            : Variable
    Bit rate                                 : 2 878 Kbps
    Maximum bit rate                         : 3 000 Kbps
    Width                                    : 720 pixels
    Height                                   : 576 pixels
    Display aspect ratio                     : 16:9
    Frame rate                               : 25.000 fps
    Standard                                 : PAL
    Color space                              : YUV
    Chroma subsampling                       : 4:2:0
    Bit depth                                : 8 bits
    Scan type                                : Interlaced
    Scan order                               : Top Field First
    Compression mode                         : Lossy
    Bits/(Pixel*Frame)                       : 0.278
    Time code of first frame                 : 06:15:06:02
    Time code source                         : Group of pictures header
    GOP, Open/Closed                         : Open
    Stream size                              : 1.04 GiB (94%)

    Audio
    ID                                       : 192 (0xC0)
    Format                                   : MPEG Audio
    Format version                           : Version 1
    Format profile                           : Layer 2
    Duration                                 : 51mn 44s
    Bit rate mode                            : Constant
    Bit rate                                 : 128 Kbps
    Channel(s)                               : 2 channels
    Sampling rate                            : 48.0 KHz
    Compression mode                         : Lossy
    Delay relative to video                  : 145ms
    Stream size                              : 47.4 MiB (4%)Свернуть


    Похожие раздачи Искать похожие
    Инструкция по скачиванию
     1  Качаем uTorrent версии 2.0 и выше
     2  После установки, жмем выше под постером на ссылку Скачать [MediaGet] или Скачать .torrent
     3  Открываем скачанный файл через соответствующий клиент: MediaGet или uTorrent
     4  Ждем пока подключатся участники
     5  Качаем
    Комментарии о  Лолита Милявская - Концерт у Маргулиса на НТВ [16.09] 
    Ближайшее в кино
    Вверх