• Игры для PS4
  • Игры для PS3
  • Игры для XBOX360
  • Игры для PC
  • Игры для PS2
  • Игры для PSP
  • Для телефонов
  • Музыка
  • Книги / Журналы
  • Обои
  • Опрос
    Удобен ли сайт в использовании?
      0
    • Очень удобен, все понятно1,1,false,300,full
    • Удобен1,2,false,300,full
    • Средне1,3,false,300,full
    • Неудобен, трудно ориентироваться1,4,false,300,full
    • Совсем неудобен1,5,false,300,full
    Статистика
    Всего онлайн -
    Гостей -
    Пользователей -
    Короли трекера
    
    Благодарности () Закрыть
    Информация о фильме
    Название: Максимальный риск
    Оригинальное название: Maximum Risk
    Год выхода: 1996
    Жанр: Боевик, триллер, мелодрама, криминал, детектив
    Режиссер: Ринго Лам
    В ролях: Жан-Клод Ван Дамм, Наташа Хенстридж, Жан-Юг Англад, Зэк Гренье, Пол Бен-Виктор, Фрэнк Сенгер, Стефанос Мильцакакис, Стефан Одран

    О фильме:
    Французский полицейский Ален Моро узнаёт о том, что один из погибших в перестрелке бандитов по имени Михаил очень похож на него. И это мягко сказано: на самом деле у них просто одно лицо. Мать Алена неожиданно признаётся в том, что Михаил — это его брат-близнец, оставленный в роддоме по настоянию семьи. Полицейский решает узнать о погибшем брате как можно больше. Он отправляется в Нью-Йорк. И чем ближе он к цели, тем меньше шансов выжить...



    Страна: США
    Студия: Columbia Pictures Corporation, Moshe Diamant Production, Roger Birnbaum Productions
    Продолжительность: 01:40:35
    Перевод: Профессиональный (дублированный) - Blu-ray CEE

    Файл
    Кодек: XviD
    Качество: HDRip Исходник
    Видео: 688x288 (2.39:1), 23.976 fps, XviD build 73 ~899 kbps avg, 0.19 bit/pixel
    Звук: 48 kHz, MPEG Layer 3, 2 ch, ~128.00 kbps avg
    Субтитры: Отдельно Русские, английские

    Семпл

    MI
    General
    Complete name               : D:Изготовление рипаMaximal`nyii risk.1996.HDRip by shkiper.avi
    Format                      : AVI
    Format/Info                 : Audio Video Interleave
    File size                   : 746 MiB
    Duration                    : 1 h 40 min
    Overall bit rate            : 1 037 kb/s
    Writing application         : VirtualDubMod 1.5.10.3 | www.virtualdub-fr.org || (build 2550/release)
    Writing library             : VirtualDubMod build 2550/release

    Video
    ID                          : 0
    Format                      : MPEG-4 Visual
    Format profile              : Advanced Simple@L5
    Format settings, BVOP       : 1
    Format settings, QPel       : No
    Format settings, GMC        : No warppoints
    Format settings, Matrix     : Custom
    Codec ID                    : XVID
    Codec ID/Hint               : XviD
    Duration                    : 1 h 40 min
    Bit rate                    : 900 kb/s
    Width                       : 688 pixels
    Height                      : 288 pixels
    Display aspect ratio        : 2.40:1
    Frame rate                  : 23.976 (24000/1001) FPS
    Color space                 : YUV
    Chroma subsampling          : 4:2:0
    Bit depth                   : 8 bits
    Scan type                   : Progressive
    Compression mode            : Lossy
    Bits/(Pixel*Frame)          : 0.189
    Stream size                 : 647 MiB (87%)
    Writing library             : XviD 73

    Audio
    ID                          : 1
    Format                      : MPEG Audio
    Format version              : Version 1
    Format profile              : Layer 3
    Codec ID                    : 55
    Codec ID/Hint               : MP3
    Duration                    : 1 h 40 min
    Bit rate mode               : Constant
    Bit rate                    : 128 kb/s
    Channel(s)                  : 2 channels
    Sampling rate               : 48.0 kHz
    Compression mode            : Lossy
    Stream size                 : 92.1 MiB (12%)
    Alignment                   : Aligned on interleaves
    Interleave, duration        : 42  ms (1.00 video frame)
    Interleave, preload duratio : 504  ms
    Writing library             : LAME3.99r
    Encoding settings           : -m s -V 4 -q 2 -lowpass 17 -b 128Свернуть


    Скриншоты
    [screen]http://i91.fastpic.ru/big/2017/0917/49/3f9ecbd752413d7d60a444e75c6c6349.png[/screen][screen]http://i91.fastpic.ru/big/2017/0917/39/50350dbbaba76b537d0113bad7b64939.png[/screen][screen]http://i91.fastpic.ru/big/2017/0917/0e/4140e7496146e2391e49ee7e259b210e.png[/screen][screen]http://i91.fastpic.ru/big/2017/0917/c2/5bf8fdeb99ebc9e9090555cf40dfa2c2.png[/screen][screen]http://i91.fastpic.ru/big/2017/0917/7c/3d6b3390aab70ff78a76e6928592eb7c.png[/screen][screen]http://i91.fastpic.ru/big/2017/0917/1d/e21248a3d979f598f041048e16b0c01d.png[/screen]Свернуть
    Похожие раздачи Искать похожие
    Инструкция по скачиванию
     1  Качаем uTorrent версии 2.0 и выше
     2  После установки, жмем выше под постером на ссылку Скачать [MediaGet] или Скачать .torrent
     3  Открываем скачанный файл через соответствующий клиент: MediaGet или uTorrent
     4  Ждем пока подключатся участники
     5  Качаем
    Комментарии о  Максимальный риск / Maximum Risk | HDRip 
    Ближайшее в кино
    Вверх