• Игры для PS4
  • Игры для PS3
  • Игры для XBOX360
  • Игры для PC
  • Игры для PS2
  • Игры для PSP
  • Для телефонов
  • Музыка
  • Книги / Журналы
  • Обои
  • Опрос
    Удобен ли сайт в использовании?
      0
    • Очень удобен, все понятно1,1,false,300,full
    • Удобен1,2,false,300,full
    • Средне1,3,false,300,full
    • Неудобен, трудно ориентироваться1,4,false,300,full
    • Совсем неудобен1,5,false,300,full
    Статистика
    Всего онлайн -
    Гостей -
    Пользователей -
    Короли трекера
    
    Благодарности () Закрыть
    Информация о фильме
    Название: Дум
    Оригинальное название: Doom
    Год выхода: 2005
    Жанр:  ужасы, фантастика, боевик, триллер, приключения
    Режиссер: Анджей Бартковяк
    В ролях: Карл Урбан , Доби Опарей , Розамунд Пайк , Разаак Адоти , Ричард Брэйк , Аль Уивер , Декстер Флетчер , Брайан Стил , Бен Дэниелс , Дуэйн Джонсон , Йао Чин , Роберт Расселл

    О фильме :
    2145 год. После того, как из далёкой научной лаборатории был получен сигнал о помощи, на место, на планету Олдуай пребывает отряд космического спецназа и обнаруживает разгромленную станцию. Уже вскоре обнаруживается, что на людей здесь охотятся полчища ужасных существ-мутантов…



    Выпущено: Германия, США, Великобритания, Чехия
    Продолжительность: 01:52:43
    Перевод: Профессиональный (полное дублирование)

    Файл
    Формат: MKV
    Качество: BDRip-AVC (Blu-ray 1080p)
    Видео: MPEG-4 AVC, 752x320, ~ 851 Кбит/с
    Аудио: [img]http://i93.fastpic.ru/big/2017/0727/c0/4b72f0369a3393219ed5935e91fc15c0.gif[/img] AAC-LC, 2 ch, ~72 Кбит/с
    Субтитры: Русские, Английские

    MI
    Общее
    Уникальный идентификатор : 205558349586323481224898931105243526792 (0x9AA5191BAFBC75CC80A646400AB6F688)
    Полное имя : D:MOVIESDoom.2005.Unrated.ExKinoRay.mkv
    Формат : Matroska
    Версия формата : Version 4 / Version 2
    Размер файла : 744 Мбайт
    Продолжительность : 1 ч. 52 м.
    Общий поток : 923 Кбит/сек
    Дата кодирования : UTC 2017-09-17 11:21:09
    Программа кодирования : mkvmerge v15.0.0 ("Duel with the Devil") 64-bit
    Библиотека кодирования : libebml v1.3.5 + libmatroska v1.4.5

    Видео
    Идентификатор : 1
    Формат : AVC
    Формат/Информация : Advanced Video Codec
    Профиль формата : High@L4.1
    Параметр CABAC формата : Да
    Параметр RefFrames формата : 10 кадров
    Идентификатор кодека : V_MPEG4/ISO/AVC
    Продолжительность : 1 ч. 52 м.
    Битрейт : 851 Кбит/сек
    Ширина : 752 пикселя
    Высота : 320 пикселей
    Соотношение сторон : 2,35:1
    Режим частоты кадров : Постоянный
    Частота кадров : 23,976 (24000/1001) кадра/сек
    Цветовое пространство : YUV
    Субдискретизация насыщенности : 4:2:0
    Битовая глубина : 8 бит
    Тип развёртки : Прогрессивная
    Бит/(Пиксели*Кадры) : 0.147
    Размер потока : 684 Мбайт (92%)
    Библиотека кодирования : x264 core 130 r2273 b3065e6
    Настройки программы : cabac=1 / ref=10 / deblock=1:-2:-2 / analyse=0x3:0x113 / me=umh / subme=11 / psy=1 / psy_rd=1.00:0.02 / mixed_ref=1 / me_range=32 / chroma_me=1 / trellis=2 / 8x8dct=1 / cqm=0 / deadzone=21,11 / fast_pskip=0 / chroma_qp_offset=-3 / threads=6 / lookahead_threads=1 / sliced_threads=0 / nr=0 / decimate=0 / interlaced=0 / bluray_compat=0 / constrained_intra=0 / bframes=10 / b_pyramid=2 / b_adapt=2 / b_bias=0 / direct=3 / weightb=1 / open_gop=0 / weightp=2 / keyint=240 / keyint_min=23 / scenecut=40 / intra_refresh=0 / rc_lookahead=40 / rc=2pass / mbtree=0 / bitrate=851 / ratetol=1.0 / qcomp=0.60 / qpmin=0 / qpmax=69 / qpstep=4 / cplxblur=20.0 / qblur=0.5 / vbv_maxrate=50000 / vbv_bufsize=62500 / nal_hrd=none / ip_ratio=1.40 / pb_ratio=1.30 / aq=1:1.00
    Default : Да
    Forced : Нет

    Аудио
    Идентификатор : 2
    Формат : AAC
    Формат/Информация : Advanced Audio Codec
    Профиль формата : LC
    Идентификатор кодека : A_AAC
    Продолжительность : 1 ч. 52 м.
    Битрейт : 72,0 Кбит/сек
    Каналы : 2 канала
    Расположение каналов : Front: L R
    Частота : 48,0 КГц
    Частота кадров : 46,875 кадров/сек (1024 SPF)
    Метод сжатия : С потерями
    Задержка видео : 9 мс.
    Размер потока : 58,1 Мбайт (8%)
    Default : Да
    Forced : Нет

    Текст #1
    Идентификатор : 3
    Формат : UTF-8
    Идентификатор кодека : S_TEXT/UTF8
    Идентификатор кодека/Информация : UTF-8 Plain Text
    Продолжительность : 1 ч. 44 м.
    Битрейт : 71 бит/сек
    ElementCount : 1066
    Размер потока : 54,6 Кбайт (0%)
    Язык : Russian
    Default : Нет
    Forced : Нет

    Текст #2
    Идентификатор : 4
    Формат : UTF-8
    Идентификатор кодека : S_TEXT/UTF8
    Идентификатор кодека/Информация : UTF-8 Plain Text
    Продолжительность : 1 ч. 49 м.
    Битрейт : 50 бит/сек
    ElementCount : 1379
    Размер потока : 40,4 Кбайт (0%)
    Язык : English
    Default : Нет
    Forced : Нет

    Меню
    00:00:00.000 : en:Quarantine Procedures
    00:02:56.416 : en:Search and Destroy
    00:10:57.666 : en:Welcome to the Ark
    00:16:12.616 : en:Going In
    00:21:21.116 : en:Superhuman
    00:25:30.833 : en:Contact!
    00:33:42.750 : en:Something"s Weird
    00:38:17.200 : en:Man Down
    00:44:08.416 : en:What Is It?
    00:50:53.500 : en:No Escape
    00:55:28.500 : en:One of Them
    01:00:09.583 : en:Advanced Weapons
    01:08:18.083 : en:Genetic Mutation
    01:13:53.500 : en:Seeking Evil
    01:17:53.083 : en:If It Breaths, Kill It
    01:21:39.866 : en:By Any Means Necessary
    01:27:35.700 : en:Game On
    01:35:01.616 : en:Last Man Standing
    01:39:22.416 : en:Faithful to the Core
    01:43:44.416 : en:Almost Home (End Titles)
    Свернуть


    Скриншоты
    [screen]http://i91.fastpic.ru/big/2017/0917/76/5c6784fd7c88f6608438155db7da1776.jpg[/screen][screen]http://i91.fastpic.ru/big/2017/0917/e0/09708e6b701ca72bc1efab1d6235a6e0.jpg[/screen][screen]http://i91.fastpic.ru/big/2017/0917/43/4bd05305a8310c333a3f5d7d6d8f7043.jpg[/screen][screen]http://i91.fastpic.ru/big/2017/0917/36/58d35592b306d43e3ab6b22d42bc9e36.jpg[/screen]

    [screen]http://i91.fastpic.ru/big/2017/0917/92/e4a122de540779a0e12d8fa1faf1a692.jpg[/screen][screen]http://i89.fastpic.ru/big/2017/0917/27/6b3c5152439cf0c7537b4349aaa7be27.jpg[/screen][screen]http://i91.fastpic.ru/big/2017/0917/43/01443d7709333731bc51193005fccc43.jpg[/screen][screen]http://i96.fastpic.ru/big/2017/0917/89/e1a5ef7c04bab047566f0eb5e7c76389.jpg[/screen]
    Свернуть
    Похожие раздачи Искать похожие
    Инструкция по скачиванию
     1  Качаем uTorrent версии 2.0 и выше
     2  После установки, жмем выше под постером на ссылку Скачать [MediaGet] или Скачать .torrent
     3  Открываем скачанный файл через соответствующий клиент: MediaGet или uTorrent
     4  Ждем пока подключатся участники
     5  Качаем
    Комментарии о  Дум / Doom | BDRip-AVC 
    Ближайшее в кино
    Вверх