• Игры для PS4
  • Игры для PS3
  • Игры для XBOX360
  • Игры для PC
  • Игры для PS2
  • Игры для PSP
  • Для телефонов
  • Музыка
  • Книги / Журналы
  • Обои
  • Опрос
    Откуда Вы о нас узнали?
      0
    • От знакомых2,1,false,300,full
    • Из социальных сетей2,2,false,300,full
    • Из поисковых систем2,3,false,300,full
    • Другое2,4,false,300,full
    Статистика
    Всего онлайн -
    Гостей -
    Пользователей -
    Короли трекера
    
    Благодарности () Закрыть
    Информация о фильме
    Название: Чужой: Завет
    Оригинальное название: Alien: Covenant
    Год выхода: 2017
    Жанр: Фантастика, триллер, ужасы
    Режиссер: Ридли Скотт
    В ролях: Майкл Фассбендер, Кэтрин Уотерстон, Билли Крадап, Дэнни МакБрайд, Демиан Бишир, Кармен Эджого, Джусси Смоллетт, Калли Эрнандес, Эми Саймец, Натаниель Дин, Александр Инглэнд, Бенжамин Ригби, Ули Латукефу, Тесс Хобрич, Лорелей Кинг, Горан Д’Клюе

    О фильме:
    Во время обследования удаленной планеты, расположенной на другой стороне галактики, экипаж колониального корабля «Завет» обнаруживает, что то, что они изначально приняли за неизведанный рай, на самом деле — тёмный и опасный мир. Его единственный житель — синтетический андроид Дэвид, оставшийся в живых после обреченной экспедиционной миссии «Прометей».



    Страна: США, Австралия, Новая Зеландия, Великобритания
    Студия: 20th Century Fox Film Corporation, Brandywine Productions
    Продолжительность: 02:38:35
    Перевод: Профессиональный (дублированный) + одноголосый на удаленные сцены (KEWE)

    Файл
    Формат: MKV
    Качество: BDRip 720p
    Видео: MPEG-4 AVC, 3067 Кбит/с, 1280x536, 23.976 кадр/с
    Звук:
    1: Russian, Dolby AC3, 48000Hz, 6ch, 448kbps (Дубляж + одноголосый (KEWE) на удаленные сцены)
    2: English, Dolby AC3, 48000Hz, 6ch, 448kbps (Оригинал)
    Субтитры: Русские

    Full Fan Cut - Полная версия фильма (были вставлены и озвучены все удаленные/альтернативные сцены, которые присутствуют на блюрей-диске.)

    MediaInfo

    General
    Unique ID : 209486473429083239871835123030751224552 (0x9D99A090F922A1599CBC6AEA5F48A2E8)
    Complete name : E:Torrent RazdachiAlien. Covenant (2017) Full FanAlien. Covenant (2017) Full Fan Cut.mkv
    Format : Matroska
    Format version : Version 4 / Version 2
    File size : 4.48 GiB
    Duration : 2h 38mn
    Overall bit rate : 4 044 Kbps
    Encoded date : UTC 2017-09-13 22:56:40
    Writing application : mkvmerge v9.7.1 ("Pandemonium") 32bit
    Writing library : libebml v1.3.4 + libmatroska v1.4.5
    DURATION : 02:11:40.730000000
    NUMBER_OF_FRAMES : 1958
    NUMBER_OF_BYTES : 135229
    _STATISTICS_WRITING_APP : mkvmerge v9.7.1 ("Pandemonium") 32bit
    _STATISTICS_WRITING_DATE_UTC : 2017-09-13 22:56:40
    _STATISTICS_TAGS : BPS DURATION NUMBER_OF_FRAMES NUMBER_OF_BYTES

    Video
    ID : 1
    Format : AVC
    Format/Info : Advanced Video Codec
    Format profile : Main@L3.1
    Format settings, CABAC : Yes
    Format settings, ReFrames : 2 frames
    Codec ID : V_MPEG4/ISO/AVC
    Duration : 2h 38mn
    Bit rate : 3 067 Kbps
    Width : 1 280 pixels
    Height : 536 pixels
    Display aspect ratio : 2.40:1
    Frame rate mode : Constant
    Frame rate : 23.976 fps
    Color space : YUV
    Chroma subsampling : 4:2:0
    Bit depth : 8 bits
    Scan type : Progressive
    Bits/(Pixel*Frame) : 0.186
    Stream size : 3.40 GiB (76%)
    Default : Yes
    Forced : No
    DURATION : 02:38:35.257000000
    NUMBER_OF_FRAMES : 228137
    NUMBER_OF_BYTES : 3740548581
    _STATISTICS_WRITING_APP : mkvmerge v9.7.1 ("Pandemonium") 32bit
    _STATISTICS_WRITING_DATE_UTC : 2017-09-13 22:56:40
    _STATISTICS_TAGS : BPS DURATION NUMBER_OF_FRAMES NUMBER_OF_BYTES

    Audio #1
    ID : 2
    Format : AC-3
    Format/Info : Audio Coding 3
    Mode extension : CM (complete main)
    Format settings, Endianness : Big
    Codec ID : A_AC3
    Duration : 2h 38mn
    Bit rate mode : Constant
    Bit rate : 448 Kbps
    Channel(s) : 6 channels
    Channel positions : Front: L C R, Side: L R, LFE
    Sampling rate : 48.0 KHz
    Compression mode : Lossy
    Stream size : 508 MiB (11%)
    Title : Дубляж + KEWE
    Language : Russian
    Default : Yes
    Forced : Yes

    Audio #2
    ID : 3
    Format : AC-3
    Format/Info : Audio Coding 3
    Mode extension : CM (complete main)
    Format settings, Endianness : Big
    Codec ID : A_AC3
    Duration : 2h 38mn
    Bit rate mode : Constant
    Bit rate : 448 Kbps
    Channel(s) : 6 channels
    Channel positions : Front: L C R, Side: L R, LFE
    Sampling rate : 48.0 KHz
    Compression mode : Lossy
    Stream size : 508 MiB (11%)
    Title : Original
    Language : English
    Default : No
    Forced : No

    Text #1
    ID : 4
    Format : UTF-8
    Codec ID : S_TEXT/UTF8
    Codec ID/Info : UTF-8 Plain Text
    Title : Форсированные
    Language : Russian
    Default : Yes
    Forced : Yes

    Text #2
    ID : 5
    Format : UTF-8
    Codec ID : S_TEXT/UTF8
    Codec ID/Info : UTF-8 Plain Text
    Title : Полные
    Language : Russian
    Default : No
    Forced : No

    Text #3
    ID : 6
    Format : UTF-8
    Codec ID : S_TEXT/UTF8
    Codec ID/Info : UTF-8 Plain Text
    Title : Комментарии Ридли Скотта
    Language : Russian
    Default : No
    Forced : No
    Свернуть


    Скриншоты
    [screen]http://i91.fastpic.ru/big/2017/0917/96/37eca26a5606df464de480d103f3dc96.jpg[/screen][screen]http://i91.fastpic.ru/big/2017/0917/de/a5a0b871eed05ea31126f14a5ceeb7de.jpg[/screen][screen]http://i91.fastpic.ru/big/2017/0917/c6/9f7d722cb2e8907194c51ebbaa24e1c6.jpg[/screen][screen]http://i91.fastpic.ru/big/2017/0917/e3/3510d4978be24a7ef828e8e47a2c38e3.jpg[/screen]Свернуть
    Похожие раздачи Искать похожие
    Инструкция по скачиванию
     1  Качаем uTorrent версии 2.0 и выше
     2  После установки, жмем выше под постером на ссылку Скачать [MediaGet] или Скачать .torrent
     3  Открываем скачанный файл через соответствующий клиент: MediaGet или uTorrent
     4  Ждем пока подключатся участники
     5  Качаем
    Комментарии о  Чужой: Завет / Alien: Covenant | BDRip 720p 
    Ближайшее в кино
    Вверх