• Игры для PS4
  • Игры для PS3
  • Игры для XBOX360
  • Игры для PC
  • Игры для PS2
  • Игры для PSP
  • Для телефонов
  • Музыка
  • Книги/Журналы
  • Обои
  •  
    Опрос
    Откуда Вы о нас узнали?
      0
    • От знакомых2,1,false,300,full
    • Из социальных сетей2,2,false,300,full
    • Из поисковых систем2,3,false,300,full
    • Другое2,4,false,300,full
    Статистика
    Загрузка...
    Создавая убийцу / Making a Murderer [Сезон 01] | WEBRip 720p
    Статус  Проверено
    В закладки
    Модератор: Max

    Создавая убийцу / Making a Murderer [Сезон 01] | WEBRip 720p [Сериалы 2015] скачать торрентом/torrent бесплатно

    Год выхода
    Категории
    Язык
    Закачал
    Аноним | 17 сентября 2017 в 20ч 20м 40с
    Раздел
    Отзывов
    0
    Раздают: 0 Качают: 0 Скачали: 0 Размер: 13.37 GB
    Инфо о раздаче | Благодарности |
    0/5
    0
    0 5 0
    Поддержи нас — расскажи друзьям!
    Orbitum
    Новый интернет-браузер Быстрее загружает сайты Экономит интернет—трафик Меняет оформление страницы ВК Блокирует всю рекламу на сайтах Загружает торренты как

    µTorrent

    клиент
    Объеденяет все твои чаты из соц. сетей в один Проигрывает твою музыку не заходя во ВКонтакте
    Скачать и многое другое... Подробности на сайте производителя
    Название: Создавая Убийцу
    Оригинальное название: Making a Murderer
    Год выхода: 2015
    Жанр: Криминал, документальный
    Режиссер: Мойра Демос, Лаура Риччарди
    В ролях: Стивен Эйвери, Лаура Ниридер, Даниэль Риччарди, Лаура Риччарди

    О фильме:
    Стивен Эйвери отсидел 18 лет за преступление, которое не совершал. И вот, благодаря научному прорыву в области анализа ДНК, он выходит на свободу. Казалось бы, худшее позади, а справедливость восторжествовала. Но похоже, у правоохранительной системы есть свое мнение на этот счет.
    Документальный сериал с элементами триллера, снимавшийся в течение 10 лет, расскажет историю «маленького человека» в его борьбе против судебной машины.



    Страна: США
    Продолжительность: ~01:00:00
    Перевод: Авторский (одноголосный) | Денис Шадинский

    Кодек: AVC (h264), High@L3.1
    Качество: WEBRip 720p
    Видео: 1280x720 (16:9), 29.970 fps, 1888-2985 kbps avg, 0.068-0.108 bit/pixel
    Звук: Rus / 48 kHz, AC3 Dolby Digital, 3/2 (L,C,R,l,r) + LFE ch, ~384 kbps avg
    Субтитры: Rus [N-Team] / SRT (надписи и названия, во 2-й, 4-й и дальнейших сериях субтитры полные)
    Сведение 5.1: dilnix

    Семпл



    Авторская раздача
    Внимание! Данная раздача является авторской. Источником основного видеоряда являются забугорные релизы WEBRip 720p. Добавление заранее подготовленных видео вставок от автора озвучки происходит без перекодировки основного видеоряда, в режиме COPY. Несмотря на это, информация контейнера при таком добавлении всё равно меняется, что нужно учитывать.


    MediaInfo
    General
    Unique ID                                : 26366816492871351925942719377004583913 (0x13D6106B9F2E9905A1B4FBDC0DF05BE9)
    Complete name                            : Making.A.Murderer.s01e01.Eighteen.Years.Lost.720p.Rus[shad].mkv
    Format                                   : Matroska
    Format version                           : Version 4 / Version 2
    File size                                : 965 MiB
    Duration                                 : 1h 4mn
    Overall bit rate                         : 2 082 Kbps
    Encoded date                             : UTC 2016-02-02 13:44:15
    Writing application                      : mkvmerge v8.8.0 ("Wind at my back") 64bit
    Writing library                          : libebml v1.3.3 + libmatroska v1.4.4 / Lavf56.40.101

    Video
    ID                                       : 1
    Format                                   : AVC
    Format/Info                              : Advanced Video Codec
    Format profile                           : High@L3.1
    Format settings, CABAC                   : Yes
    Format settings, ReFrames                : 3 frames
    Codec ID                                 : V_MPEG4/ISO/AVC
    Duration                                 : 1h 4mn
    Bit rate                                 : 1 888 Kbps
    Width                                    : 1 280 pixels
    Height                                   : 720 pixels
    Display aspect ratio                     : 16:9
    Frame rate mode                          : Variable
    Frame rate                               : 29.970 (29970/1000) fps
    Original frame rate                      : 25.000 fps
    Color space                              : YUV
    Chroma subsampling                       : 4:2:0
    Bit depth                                : 8 bits
    Scan type                                : Progressive
    Bits/(Pixel*Frame)                       : 0.068
    Stream size                              : 875 MiB (91%)
    Writing library                          : x264 core 130 r2274bm c832fe9
    Encoding settings                        : cabac=1 / ref=3 / deblock=1:0:0 / analyse=0x3:0x113 / me=hex / subme=7 / psy=1 / psy_rd=1.00:0.00 / mixed_ref=1 / me_range=16 / chroma_me=1 / trellis=1 / 8x8dct=1 / cqm=0 / deadzone=21,11 / fast_pskip=1 / chroma_qp_offset=-2 / threads=8 / lookahead_threads=8 / sliced_threads=1 / slices=8 / nr=0 / decimate=1 / interlaced=0 / bluray_compat=0 / constrained_intra=0 / bframes=0 / weightp=2 / keyint=250 / keyint_min=25 / scenecut=40 / intra_refresh=0 / rc=abr / mbtree=0 / bitrate=4000 / ratetol=1.0 / qcomp=0.60 / qpmin=0 / qpmax=69 / qpstep=4 / ip_ratio=1.40 / aq=1:1.00
    Language                                 : English
    Default                                  : Yes
    Forced                                   : No

    Audio
    ID                                       : 2
    Format                                   : AC-3
    Format/Info                              : Audio Coding 3
    Mode extension                           : CM (complete main)
    Format settings, Endianness              : Big
    Codec ID                                 : A_AC3
    Duration                                 : 1h 4mn
    Bit rate mode                            : Constant
    Bit rate                                 : 192 Kbps
    Channel(s)                               : 2 channels
    Channel positions                        : Front: L R
    Sampling rate                            : 44.1 KHz
    Frame rate                               : 28.711 fps (1536 spf)
    Compression mode                         : Lossy
    Stream size                              : 89.0 MiB (9%)
    Language                                 : Russian
    Default                                  : Yes
    Forced                                   : No

    Text
    ID                                       : 3
    Format                                   : UTF-8
    Codec ID                                 : S_TEXT/UTF8
    Codec ID/Info                            : UTF-8 Plain Text
    Duration                                 : 1h 0mn
    Bit rate                                 : 24 bps
    Count of elements                        : 159
    Stream size                              : 10.7 KiB (0%)
    Language                                 : Russian
    Default                                  : Yes
    Forced                                   : No
    Еще похожие »

    Как скачать?
    1. Качаем UTorrent версии 2.0 и выше отсюда
    2. После установки, жмем на ссылку Скачать торрент.
    3. Открываем его через utorrent.
    4. Ждем пока подключатся участники.
    5. Качаем.


    Комментарии о Создавая убийцу / Making a Murderer [Сезон 01] | WEBRip 720p
    Добавлять комментарии могут только зарегистрированные пользователи

    Зарегистрироваться или Войти


    Ближайшее в кино
    • Безумие Георга III дата выхода 20 ноября 2018Безумие Георга III
      Дата выхода: 20 ноября 2018
    • 7226|Догвилль|22 ноября 2018|200|300Догвилль
      Дата выхода: 22 ноября 2018
    • 1009784|Апгрейд|22 ноября 2018|200|300Апгрейд
      Дата выхода: 22 ноября 2018
    • 988782|Ральф против интернета|22 ноября 2018|200|300Ральф против интернета
      Дата выхода: 22 ноября 2018
    • 965901|Вдовы|22 ноября 2018|200|300Вдовы
      Дата выхода: 22 ноября 2018
    • 1011685|Нация убийц|22 ноября 2018|200|300Нация убийц
      Дата выхода: 22 ноября 2018
    • 891414|Жена|22 ноября 2018|200|300Жена
      Дата выхода: 22 ноября 2018
    • 934207|Мотылёк|22 ноября 2018|200|300Мотылёк
      Дата выхода: 22 ноября 2018
    • 1044912|Вечерняя школа|22 ноября 2018|200|300Вечерняя школа
      Дата выхода: 22 ноября 2018
    • 1036188|Быть Астрид Линдгрен|22 ноября 2018|200|300Быть Астрид Линдгрен
      Дата выхода: 22 ноября 2018
    • 1048852|Помешанный на времени|22 ноября 2018|200|300Помешанный на времени
      Дата выхода: 22 ноября 2018
    • 1049775|Подбросы|22 ноября 2018|200|300Подбросы
      Дата выхода: 22 ноября 2018
    • 1108741|Я — миллиардер|22 ноября 2018|200|300Я — миллиардер
      Дата выхода: 22 ноября 2018
    • 1118041|Три лица|22 ноября 2018|200|300Три лица
      Дата выхода: 22 ноября 2018
    • 1209190|МУЛЬТ в кино. Выпуск 85. Мамин праздник|24 ноября 2018|200|300МУЛЬТ в кино. Выпуск 85. Мамин праздник
      Дата выхода: 24 ноября 2018
    Вверх