• Игры для PS4
  • Игры для PS3
  • Игры для XBOX360
  • Игры для PC
  • Игры для PS2
  • Игры для PSP
  • Для телефонов
  • Музыка
  • Книги/Журналы
  • Обои
  •  
    Опрос
    Откуда Вы о нас узнали?
      0
    • От знакомых2,1,false,300,full
    • Из социальных сетей2,2,false,300,full
    • Из поисковых систем2,3,false,300,full
    • Другое2,4,false,300,full
    Статистика
    Загрузка...
    Нужные люди / People I Know | BDRip 1080p
    Статус  Проверено
    В закладки
    Модератор: Max

    Нужные люди / People I Know | BDRip 1080p [Фильмы 2002] скачать торрентом/torrent бесплатно

    Год выхода
    Язык
    Закачал
    Аноним | 17 сентября 2017 в 21ч 28м 01с
    Раздел
    Отзывов
    0
    Раздают: 0 Качают: 0 Скачали: 0 Размер: 9.22 GB
    Инфо о раздаче | Благодарности |
    0/5
    0
    0 5 0
    Поддержи нас — расскажи друзьям!
    Orbitum
    Новый интернет-браузер Быстрее загружает сайты Экономит интернет—трафик Меняет оформление страницы ВК Блокирует всю рекламу на сайтах Загружает торренты как

    µTorrent

    клиент
    Объеденяет все твои чаты из соц. сетей в один Проигрывает твою музыку не заходя во ВКонтакте
    Скачать и многое другое... Подробности на сайте производителя
    Название: Нужные люди
    Оригинальное название: People I Know
    Год выхода: 2002
    Страна: США, Германия
    Студия: Myriad Pictures, Wildwood Enterprises, Galena
    Продолжительность: 01:39:27
    Жанр: драма, криминал, детектив

    Режиссер: Дэниел Олгрант
    В ролях: Аль Пачино, Ким Бэсинджер, Райан О`Нил, Теа Леони, Ричард Шифф, Билл Нанн, Роберт Клейн, Марк Веббер, Элдон Баллок, Джульетт Папа, ...

    Перевод:
    - Профессиональный (двуголосый, закадровый) Тарадайкин с подругой
    - Профессиональный (двуголосый, закадровый) ?
    - Авторский (одноголосый, закадровый) Визгунов Сергей
    - Субтитры

    О фильме: Высший свет Нью-Йорка боится и боготворит вездесущего Илая Вэрмана. Этот бывалый знаток человеческой натуры легко сводит вместе нужных людей и мирит врагов с немалой выгодой для себя.
    Его работа — знать всех и вся, но когда невинная просьба знаменитого актера, попавшего в щекотливую ситуацию, втягивает Илая в запутанную историю с таинственным убийством, пронырливый светский лев понимает, что не знает ничего. А может быть, он знает слишком много, и за это его ждет жестокая расплата?…



    Кодек: x264
    Качество: BDRip 1080p
    Видео: 1920x1080, 12000 kbps, 23,976 fps
    Аудио #1: AC-3, 6 ch, 448 kbps (Rus) - DVO Тарадайкин с подругой
    Аудио #2: AC-3, 2 ch, 192 kbps (Rus) - DVO
    Аудио #3: AC-3, 2 ch, 192 kbps (Rus) - AVO Визгунов Сергей
    Аудио #4: AC-3, 6 ch, 448 kbps (Eng)
    Субтитры: русские, английские

    Дополнительная информация
    За исходник спасибо - Enclave76


    MediaInfo

    x264 [info]: frame I:782   Avg QP:19.04  size:236759
    x264 [info]: frame P:26622 Avg QP:21.31  size:127848
    x264 [info]: frame B:115671 Avg QP:23.43  size: 46336
    x264 [info]: consecutive B-frames:  1.0%  0.8%  3.7%  7.2%  9.5% 74.4%  2.8%  0.1%  0.2%  0.1%  0.0%  0.1%  0.2%

    Общее
    Уникальный идентификатор : 182777330338762025887750547036642373467 (0x8981A2243D18430CB4E7DDC565666F5B)
    Полное имя : Нужные люди (People I Know) 2002 BDRip 1080p.mkv
    Формат : Matroska
    Версия формата : Version 2
    Размер файла : 9,22 Гбайт
    Продолжительность : 1 ч. 39 м.
    Общий поток : 13,3 Мбит/сек
    Дата кодирования : UTC 2017-09-17 17:03:42
    Программа кодирования : mkvmerge v4.0.0 ("The Stars were mine") сборка от Jun 6 2010 16:18:42
    Библиотека кодирования : libebml v1.0.0 + libmatroska v1.0.0

    Видео
    Идентификатор : 1
    Формат : AVC
    Формат/Информация : Advanced Video Codec
    Профиль формата : High@L4.1
    Параметр CABAC формата : Да
    Параметр ReFrames формата : 4 кадра
    Идентификатор кодека : V_MPEG4/ISO/AVC
    Продолжительность : 1 ч. 39 м.
    Битрейт : 12,0 Мбит/сек
    Ширина : 1920 пикселей
    Высота : 1080 пикселей
    Соотношение сторон : 16:9
    Режим частоты кадров : Постоянный
    Частота кадров : 23,976 (24000/1001) кадра/сек
    Цветовое пространство : YUV
    Субдискретизация насыщенности : 4:2:0
    Битовая глубина : 8 бит
    Тип развёртки : Прогрессивная
    Бит/(Пиксели*Кадры) : 0.241
    Размер потока : 8,15 Гбайт (88%)
    Библиотека кодирования : x264 core 146 r2538 121396c
    Настройки программы : cabac=1 / ref=4 / deblock=1:-2:-2 / analyse=0x3:0x133 / me=umh / subme=11 / psy=1 / psy_rd=1.00:0.00 / mixed_ref=1 / me_range=32 / chroma_me=1 / trellis=2 / 8x8dct=1 / cqm=0 / deadzone=21,11 / fast_pskip=0 / chroma_qp_offset=-2 / threads=12 / lookahead_threads=2 / sliced_threads=0 / nr=0 / decimate=0 / interlaced=0 / bluray_compat=0 / constrained_intra=0 / bframes=12 / b_pyramid=2 / b_adapt=2 / b_bias=0 / direct=3 / weightb=1 / open_gop=0 / weightp=2 / keyint=240 / keyint_min=23 / scenecut=40 / intra_refresh=0 / rc=2pass / mbtree=0 / bitrate=12000 / ratetol=1.0 / qcomp=0.60 / qpmin=0 / qpmax=69 / qpstep=4 / cplxblur=20.0 / qblur=0.5 / ip_ratio=1.40 / pb_ratio=1.30 / aq=3:0.80
    Язык : English
    Default : Нет
    Forced : Нет

    Аудио #1
    Идентификатор : 2
    Формат : AC-3
    Формат/Информация : Audio Coding 3
    Расширение режима : CM (complete main)
    Параметр Endianness формата : Big
    Идентификатор кодека : A_AC3
    Продолжительность : 1 ч. 39 м.
    Вид битрейта : Постоянный
    Битрейт : 448 Кбит/сек
    Каналы : 6 каналов
    Расположение каналов : Front: L C R, Side: L R, LFE
    Частота : 48,0 КГц
    Частота кадров : 31,250 кадров/сек (1536 spf)
    Метод сжатия : С потерями
    Размер потока : 319 Мбайт (3%)
    Заголовок : DVO Тарадайкин с подругой
    Язык : Russian
    Default : Нет
    Forced : Нет

    Аудио #2
    Идентификатор : 3
    Формат : AC-3
    Формат/Информация : Audio Coding 3
    Расширение режима : CM (complete main)
    Параметр Endianness формата : Big
    Идентификатор кодека : A_AC3
    Продолжительность : 1 ч. 39 м.
    Вид битрейта : Постоянный
    Битрейт : 192 Кбит/сек
    Каналы : 2 канала
    Расположение каналов : Front: L R
    Частота : 48,0 КГц
    Частота кадров : 31,250 кадров/сек (1536 spf)
    Метод сжатия : С потерями
    Размер потока : 137 Мбайт (1%)
    Заголовок : DVO
    Язык : Russian
    Default : Нет
    Forced : Нет

    Аудио #3
    Идентификатор : 4
    Формат : AC-3
    Формат/Информация : Audio Coding 3
    Расширение режима : CM (complete main)
    Параметр Endianness формата : Big
    Идентификатор кодека : A_AC3
    Продолжительность : 1 ч. 39 м.
    Вид битрейта : Постоянный
    Битрейт : 192 Кбит/сек
    Каналы : 2 канала
    Расположение каналов : Front: L R
    Частота : 48,0 КГц
    Частота кадров : 31,250 кадров/сек (1536 spf)
    Метод сжатия : С потерями
    Размер потока : 137 Мбайт (1%)
    Заголовок : AVO Визгунов Сергей
    Язык : Russian
    Default : Нет
    Forced : Нет

    Аудио #4
    Идентификатор : 5
    Формат : AC-3
    Формат/Информация : Audio Coding 3
    Расширение режима : CM (complete main)
    Параметр Endianness формата : Big
    Идентификатор кодека : A_AC3
    Продолжительность : 1 ч. 39 м.
    Вид битрейта : Постоянный
    Битрейт : 448 Кбит/сек
    Каналы : 6 каналов
    Расположение каналов : Front: L C R, Side: L R, LFE
    Частота : 48,0 КГц
    Частота кадров : 31,250 кадров/сек (1536 spf)
    Метод сжатия : С потерями
    Размер потока : 319 Мбайт (3%)
    Язык : English
    Default : Нет
    Forced : Нет

    Текст #1
    Идентификатор : 6
    Формат : UTF-8
    Идентификатор кодека : S_TEXT/UTF8
    Идентификатор кодека/Информация : UTF-8 Plain Text
    Язык : Russian
    Default : Нет
    Forced : Нет

    Текст #2
    Идентификатор : 7
    Формат : UTF-8
    Идентификатор кодека : S_TEXT/UTF8
    Идентификатор кодека/Информация : UTF-8 Plain Text
    Язык : English
    Default : Нет
    Forced : Нет


    [img]http://s019.radikal.ru/i609/1709/58/a1a578c378d9.png[/img][img]http://s015.radikal.ru/i331/1709/85/030ea7880863.png[/img][img]http://s019.radikal.ru/i634/1709/ae/16c9a2de71bc.png[/img][img]http://s012.radikal.ru/i320/1709/03/82a392e8f2f5.png[/img]
    [img]http://s019.radikal.ru/i623/1709/ec/8060bfc2cc13.png[/img][img]http://s019.radikal.ru/i616/1709/4c/4f729cbe5bb5.png[/img][img]http://s42.radikal.ru/i096/1709/94/22d6ddcf3b33.png[/img][img]http://s018.radikal.ru/i520/1709/1b/5e9ad346984e.png[/img]
    Еще похожие »

    Как скачать?
    1. Качаем UTorrent версии 2.0 и выше отсюда
    2. После установки, жмем на ссылку Скачать торрент.
    3. Открываем его через utorrent.
    4. Ждем пока подключатся участники.
    5. Качаем.


    Комментарии о Нужные люди / People I Know | BDRip 1080p
    Добавлять комментарии могут только зарегистрированные пользователи

    Зарегистрироваться или Войти


    Ближайшее в кино
    • Безумие Георга III дата выхода 20 ноября 2018Безумие Георга III
      Дата выхода: 20 ноября 2018
    • 7226|Догвилль|22 ноября 2018|200|300Догвилль
      Дата выхода: 22 ноября 2018
    • 1009784|Апгрейд|22 ноября 2018|200|300Апгрейд
      Дата выхода: 22 ноября 2018
    • 988782|Ральф против интернета|22 ноября 2018|200|300Ральф против интернета
      Дата выхода: 22 ноября 2018
    • 965901|Вдовы|22 ноября 2018|200|300Вдовы
      Дата выхода: 22 ноября 2018
    • 1011685|Нация убийц|22 ноября 2018|200|300Нация убийц
      Дата выхода: 22 ноября 2018
    • 891414|Жена|22 ноября 2018|200|300Жена
      Дата выхода: 22 ноября 2018
    • 934207|Мотылёк|22 ноября 2018|200|300Мотылёк
      Дата выхода: 22 ноября 2018
    • 1044912|Вечерняя школа|22 ноября 2018|200|300Вечерняя школа
      Дата выхода: 22 ноября 2018
    • 1036188|Быть Астрид Линдгрен|22 ноября 2018|200|300Быть Астрид Линдгрен
      Дата выхода: 22 ноября 2018
    • 1048852|Помешанный на времени|22 ноября 2018|200|300Помешанный на времени
      Дата выхода: 22 ноября 2018
    • 1049775|Подбросы|22 ноября 2018|200|300Подбросы
      Дата выхода: 22 ноября 2018
    • 1108741|Я — миллиардер|22 ноября 2018|200|300Я — миллиардер
      Дата выхода: 22 ноября 2018
    • 1118041|Три лица|22 ноября 2018|200|300Три лица
      Дата выхода: 22 ноября 2018
    • 1209190|МУЛЬТ в кино. Выпуск 85. Мамин праздник|24 ноября 2018|200|300МУЛЬТ в кино. Выпуск 85. Мамин праздник
      Дата выхода: 24 ноября 2018
    Вверх