• Игры для PS4
  • Игры для PS3
  • Игры для XBOX360
  • Игры для PC
  • Игры для PS2
  • Игры для PSP
  • Для телефонов
  • Музыка
  • Книги/Журналы
  • Обои
  •  
    Опрос
    Удобен ли сайт в использовании?
      0
    • Очень удобен, все понятно1,1,false,300,full
    • Удобен1,2,false,300,full
    • Средне1,3,false,300,full
    • Неудобен, трудно ориентироваться1,4,false,300,full
    • Совсем неудобен1,5,false,300,full
    Статистика
    Загрузка...
    Дангал / Борьба / Dangal | BDRip 1080p
    Статус  Проверено
    В закладки
    Модератор: Max

    Дангал / Борьба / Dangal | BDRip 1080p [Фильмы 2016] скачать торрентом/torrent бесплатно

    Год выхода
    Категории
    Язык
    Закачал
    Аноним | 18 сентября 2017 в 00ч 13м 36с
    Раздел
    Отзывов
    0
    Раздают: 3 Качают: 3 Скачали: 5 Размер: 17.9 GB
    Инфо о раздаче | Благодарности |
    0/5
    0
    0 5 0
    Поддержи нас — расскажи друзьям!
    Orbitum
    Новый интернет-браузер Быстрее загружает сайты Экономит интернет—трафик Меняет оформление страницы ВК Блокирует всю рекламу на сайтах Загружает торренты как

    µTorrent

    клиент
    Объеденяет все твои чаты из соц. сетей в один Проигрывает твою музыку не заходя во ВКонтакте
    Скачать и многое другое... Подробности на сайте производителя
    Информация о фильме
    Название: Дангал
    Оригинальное название: Dangal
    Год выхода: 2016
    Жанр: драма, биография, спорт
    Режиссер: Нитеш Тивари
    В ролях: Аамир Кхан, Сакши Танвар, Фатима Сана Шаикх, Санья Малхотра, Апаршакти Хурана, Заира Васим, Сухани Бхатнагар, Ритвик Сахоре, Гириш Кулкарни, Анураг Арора, Махеш Балрадж, Виван Бхатена, Анмол Чаран, Бадрул Ислам

    О фильме:
    История реально существующего спортсмена Махавира Сингха Пхогата, который по причине бедности был вынужден бросить спортивную борьбу, но поклялся воспитать сына, который станет в будущем олимпийским чемпионом. Но вот досада — у них с женой родились четыре дочки. Отец сначала отчаялся, но потом, увидев, что подросшие девчонки поколачивают одноклассников, решил всё же сделать из них спортсменок. Тренер из отца получился отменный.



    Страна: Индия
    Продолжительность: 02:41:01
    Перевод: Профессиональный многоголосый
    Файл
    Кодек: H.264
    Качество: BDRip 1080p
    Видео: 1920x804, 12,9 Мбит/с, 24 кадр/с
    Аудио: DTS, 6 ch, 1509 кбит/с - Русский (FocusStudio)

    Скриншоты
    [img]http://i3.imageban.ru/out/2017/09/17/72e3e6c520f550da8b146cdf9d4e8b67.png[/img][img]http://i4.imageban.ru/out/2017/09/17/e9acba5020d8d7ff9612662f8089c7ad.png[/img][img]http://i5.imageban.ru/out/2017/09/17/7d4622af959e0d25ef6b9f5ddacf575e.png[/img][img]http://i6.imageban.ru/out/2017/09/17/d3eced0b75a778a1a1aab60d7ef1e3b0.png[/img]


    MI
    Format                                   : Matroska
    Format version                           : Version 4 / Version 2
    File size                                : 17.9 GiB
    Duration                                 : 2h 41mn
    Overall bit rate                         : 15.9 Mbps
    Movie name                               : Dangal @ FocusStudio
    Encoded date                             : UTC 2017-08-31 16:12:56
    Writing application                      : mkvmerge v14.0.0 ("Flow") 64bit
    Writing library                          : libebml v1.3.4 + libmatroska v1.4.5

    Video
    ID                                       : 1
    Format                                   : AVC
    Format/Info                              : Advanced Video Codec
    Format profile                           : High@L4.1
    Format settings, CABAC                   : Yes
    Format settings, ReFrames                : 5 frames
    Codec ID                                 : V_MPEG4/ISO/AVC
    Duration                                 : 2h 41mn
    Bit rate                                 : 12.6 Mbps
    Width                                    : 1 920 pixels
    Height                                   : 804 pixels
    Display aspect ratio                     : 2.40:1
    Frame rate mode                          : Constant
    Frame rate                               : 24.000 fps
    Color space                              : YUV
    Chroma subsampling                       : 4:2:0
    Bit depth                                : 8 bits
    Scan type                                : Progressive
    Bits/(Pixel*Frame)                       : 0.340
    Stream size                              : 14.1 GiB (79%)
    Writing library                          : x264 core 148 r2762.20 f1807b7 VietHD_Custom
    Encoding settings                        : cabac=1 / ref=5 / deblock=1:-3:-3 / analyse=0x3:0x133 / me=umh / subme=10 / psy=1 / fade_compensate=0.00 / psy_rd=1.07:0.00 / mixed_ref=1 / me_range=24 / chroma_me=1 / trellis=2 / 8x8dct=1 / cqm=0 / deadzone=21,11 / fast_pskip=0 / chroma_qp_offset=-2 / threads=12 / lookahead_threads=2 / sliced_threads=0 / nr=0 / decimate=0 / interlaced=0 / bluray_compat=0 / constrained_intra=0 / fgo=0 / bframes=7 / b_pyramid=2 / b_adapt=2 / b_bias=0 / direct=3 / weightb=1 / open_gop=0 / weightp=2 / keyint=250 / keyint_min=24 / scenecut=40 / intra_refresh=0 / rc_lookahead=60 / rc=crf / mbtree=0 / crf=16.5000 / qcomp=0.65 / qpmin=0:0:0 / qpmax=69:69:69 / qpstep=4 / vbv_maxrate=62500 / vbv_bufsize=78125 / crf_max=0.0 / nal_hrd=none / filler=0 / ip_ratio=1.30 / pb_ratio=1.20 / aq=3:0.75 / aq-sensitivity=10.00 / aq-factor=1.00:1.00:1.00 / aq2=0 / aq3=0 / zones=115865,115934,crf=14/139887,139950,crf=14
    Language                                 : Hindi
    Default                                  : Yes
    Forced                                   : No
    Matrix coefficients                      : BT.709

    Audio #1
    ID                                       : 2
    Format                                   : DTS
    Format/Info                              : Digital Theater Systems
    Mode                                     : 16
    Format settings, Endianness              : Big
    Codec ID                                 : A_DTS
    Duration                                 : 2h 41mn
    Bit rate mode                            : Constant
    Bit rate                                 : 1 509 Kbps
    Channel(s)                               : 6 channels
    Channel positions                        : Front: L C R, Side: L R, LFE
    Sampling rate                            : 48.0 KHz
    Bit depth                                : 24 bits
    Compression mode                         : Lossy
    Stream size                              : 1.70 GiB (9%)
    Title                                    : MVO FocusStudio
    Language                                 : Russian
    Default                                  : Yes
    Forced                                   : No

    Audio #2
    ID                                       : 3
    Format                                   : DTS
    Format/Info                              : Digital Theater Systems
    Mode                                     : 16
    Format settings, Endianness              : Big
    Codec ID                                 : A_DTS
    Duration                                 : 2h 41mn
    Bit rate mode                            : Constant
    Bit rate                                 : 1 509 Kbps
    Channel(s)                               : 6 channels
    Channel positions                        : Front: L C R, Side: L R, LFE
    Sampling rate                            : 48.0 KHz
    Bit depth                                : 24 bits
    Compression mode                         : Lossy
    Stream size                              : 1.70 GiB (9%)
    Language                                 : Hindi
    Default                                  : No
    Forced                                   : No

    Text #1
    ID                                       : 4
    Format                                   : ASS
    Codec ID                                 : S_TEXT/ASS
    Codec ID/Info                            : Advanced Sub Station Alpha
    Compression mode                         : Lossless
    Title                                    : forced
    Language                                 : Russian
    Default                                  : Yes
    Forced                                   : Yes

    Text #2
    ID                                       : 5
    Format                                   : UTF-8
    Codec ID                                 : S_TEXT/UTF8
    Codec ID/Info                            : UTF-8 Plain Text
    Language                                 : English
    Default                                  : No
    Forced                                   : No

    Menu
    00:00:00.000                             : en:Mahavir"s Dream
    00:10:33.833                             : en:Mahavir"s Despair
    00:16:23.542                             : en:Hope Returns
    00:20:57.833                             : en:Haanikaarak Baapu
    00:28:12.333                             : en:Geeta & Babita"s Training
    00:32:35.500                             : en:Mahavir vs. Rest
    00:36:22.708                             : en:Geeta & Babita"s Revolt
    00:43:44.708                             : en:Geeta & Babita"s Realization
    00:47:31.250                             : en:Geeta"s First Dangal
    00:56:42.833                             : en:Dhaakad
    00:59:54.583                             : en:Mahavir"s Sacrifice
    01:02:47.625                             : en:Geeta"s Victory March
    01:12:08.333                             : en:Geeta Arrives at Nsa
    01:15:28.000                             : en:Geeta Experiences Freedom
    01:26:24.625                             : en:Geeta vs. Babita
    01:34:05.250                             : en:Babita Goes to Nsa
    01:41:23.542                             : en:Mahavir Comes to Patiala
    01:45:18.833                             : en:Geeta & Babita"s Double Training
    01:51:11.583                             : en:Geeta"s Distant Training
    01:56:49.458                             : en:Geeta"s First Match
    02:04:11.542                             : en:Semifinal Match
    02:13:32.417                             : en:Coach"s Desperation
    02:18:20.000                             : en:The Final Match
    02:31:53.667                             : en:Tears of Joy


    [img]http://i95.fastpic.ru/big/2017/0606/4f/4151405efb6445b28dd7a03481260d4f.gif[/img]
    Еще похожие »

    Как скачать?
    1. Качаем UTorrent версии 2.0 и выше отсюда
    2. После установки, жмем на ссылку Скачать торрент.
    3. Открываем его через utorrent.
    4. Ждем пока подключатся участники.
    5. Качаем.


    Комментарии о Дангал / Борьба / Dangal | BDRip 1080p
    Добавлять комментарии могут только зарегистрированные пользователи

    Зарегистрироваться или Войти


    Ближайшее в кино
    • Аллилуйя! дата выхода 13 ноября 2018Аллилуйя!
      Дата выхода: 13 ноября 2018
    • 1199695|Coldplay: A Head Full of Dreams|14 ноября 2018|200|300Coldplay: A Head Full of Dreams
      Дата выхода: 14 ноября 2018
    • 843479|Фантастические твари: Преступления Грин-де-Вальда|15 ноября 2018|200|300Фантастические твари: Преступления Грин-де-Вальда
      Дата выхода: 15 ноября 2018
    • 1070264|Догмэн|15 ноября 2018|200|300Догмэн
      Дата выхода: 15 ноября 2018
    • 1068448|Оцепеневшие от страха|15 ноября 2018|200|300Оцепеневшие от страха
      Дата выхода: 15 ноября 2018
    • 1065878|Холодная война|15 ноября 2018|200|300Холодная война
      Дата выхода: 15 ноября 2018
    • 933787|Не чужие|15 ноября 2018|200|300Не чужие
      Дата выхода: 15 ноября 2018
    • 1045040|Облепиховое лето|15 ноября 2018|200|300Облепиховое лето
      Дата выхода: 15 ноября 2018
    • 1085625|Соната|15 ноября 2018|200|300Соната
      Дата выхода: 15 ноября 2018
    • 1174349|Безумие Георга III|20 ноября 2018|200|300Безумие Георга III
      Дата выхода: 20 ноября 2018
    • 7226|Догвилль|22 ноября 2018|200|300Догвилль
      Дата выхода: 22 ноября 2018
    • 1009784|Апгрейд|22 ноября 2018|200|300Апгрейд
      Дата выхода: 22 ноября 2018
    • 988782|Ральф против интернета|22 ноября 2018|200|300Ральф против интернета
      Дата выхода: 22 ноября 2018
    • 965901|Вдовы|22 ноября 2018|200|300Вдовы
      Дата выхода: 22 ноября 2018
    • 1011685|Нация убийц|22 ноября 2018|200|300Нация убийц
      Дата выхода: 22 ноября 2018
    Вверх