• Игры для PS4
  • Игры для PS3
  • Игры для XBOX360
  • Игры для PC
  • Игры для PS2
  • Игры для PSP
  • Для телефонов
  • Музыка
  • Книги / Журналы
  • Обои
  • Опрос
    Удобен ли сайт в использовании?
      0
    • Очень удобен, все понятно1,1,false,300,full
    • Удобен1,2,false,300,full
    • Средне1,3,false,300,full
    • Неудобен, трудно ориентироваться1,4,false,300,full
    • Совсем неудобен1,5,false,300,full
    Статистика
    Всего онлайн -
    Гостей -
    Пользователей -
    Короли трекера
    
    Благодарности () Закрыть
    Название: Рикер
    Оригинальное название: Reeker
    Год выхода: 2005

    Страна: США
    Студия: Institution, The, Primal Pictures, Afraid of the Dark
    Продолжительность: 01:31:17
    Жанр: ужасы, детектив

    Режиссер: Дэйв Пэйн
    В ролях: Девон Гаммерсолл, Тина Пэйн, Дерек Ричардсон, Тина Иллман, Скотт Уайт, Ариэль Кеббел, Майкл Айронсайд, Эрик Мэбиас, Марша Страссман, Дэвид Хэдингер, Лес Джэнки, ...

    Перевод:
    - Профессиональный (дублированный) R5 от «Twister»
    - Любительский (одноголосый, закадровый) ?
    - Субтитры

    О фильме: В недобрый час компания студентов оказалась в заброшенном мотеле под названием «На полпути». Они и не подозревали, что в самом деле застряли «на полпути»: на перепутье между светом и тьмой, ночью и днем, живыми и мертвыми.
    Отрезанные от всего мира, они попали в ловушку к кошмарному, издающему невыносимый тошнотворный запах монстру, открывшему на них охоту. Чтобы дожить до утра, им нужно не только узнать, что же такое РИКЕР, но и понять одну вещь: если хочешь жить, не надо бояться смерти…



    Кодек: x264
    Качество: WEBRip 1080p
    Видео: 1920x1080, 13500 kbps, 23,976 fps
    Аудио #1: AC-3, 6 ch, 384  kbps (Rus) - Dub
    Аудио #2: AC-3, 2 ch, 192  kbps (Rus) - VO
    Аудио #3: AC-3, 6 ch, 384  kbps (Eng)
    Субтитры: русские, английские

    MediaInfo
    Общее
    Уникальный идентификатор : 190414949375899172252767736708766079243 (0x8F4095D5510A0835A348E361E3F7990B)
    Полное имя : Рикер 1 (Reeker) 2005 WEBRip 1080p.mkv
    Формат : Matroska
    Версия формата : Version 2
    Размер файла : 9,38 Гбайт
    Продолжительность : 1 ч. 31 м.
    Режим общего битрейта : Переменный
    Общий поток : 14,7 Мбит/сек
    Дата кодирования : UTC 2017-09-08 16:42:18
    Программа кодирования : mkvmerge v4.0.0 ("The Stars were mine") сборка от Jun 6 2010 16:18:42
    Библиотека кодирования : libebml v1.0.0 + libmatroska v1.0.0

    Видео
    Идентификатор : 1
    Формат : AVC
    Формат/Информация : Advanced Video Codec
    Профиль формата : High@L4.0
    Параметр CABAC формата : Да
    Параметр ReFrames формата : 4 кадра
    Идентификатор кодека : V_MPEG4/ISO/AVC
    Продолжительность : 1 ч. 31 м.
    Вид битрейта : Переменный
    Битрейт : 13,5 Мбит/сек
    Максимальный битрейт : 15,0 Мбит/сек
    Ширина : 1920 пикселей
    Высота : 1080 пикселей
    Соотношение сторон : 16:9
    Режим частоты кадров : Постоянный
    Частота кадров : 23,976 кадра/сек
    Цветовое пространство : YUV
    Субдискретизация насыщенности : 4:2:0
    Битовая глубина : 8 бит
    Тип развёртки : Прогрессивная
    Бит/(Пиксели*Кадры) : 0.271
    Размер потока : 8,58 Гбайт (91%)
    Язык : English
    Default : Нет
    Forced : Нет
    Основные цвета : BT.709
    Характеристики трансфера : BT.709
    Коэффициенты матрицы : BT.709

    Аудио #1
    Идентификатор : 2
    Формат : AC-3
    Формат/Информация : Audio Coding 3
    Расширение режима : CM (complete main)
    Параметр Endianness формата : Big
    Идентификатор кодека : A_AC3
    Продолжительность : 1 ч. 31 м.
    Вид битрейта : Постоянный
    Битрейт : 384 Кбит/сек
    Каналы : 6 каналов
    Расположение каналов : Front: L C R, Side: L R, LFE
    Частота : 48,0 КГц
    Битовая глубина : 16 бит
    Метод сжатия : С потерями
    Размер потока : 251 Мбайт (3%)
    Заголовок : Dub
    Язык : Russian
    Default : Нет
    Forced : Нет

    Аудио #2
    Идентификатор : 3
    Формат : AC-3
    Формат/Информация : Audio Coding 3
    Расширение режима : CM (complete main)
    Параметр Endianness формата : Big
    Идентификатор кодека : A_AC3
    Продолжительность : 1 ч. 31 м.
    Вид битрейта : Постоянный
    Битрейт : 192 Кбит/сек
    Каналы : 2 канала
    Расположение каналов : Front: L R
    Частота : 48,0 КГц
    Битовая глубина : 16 бит
    Метод сжатия : С потерями
    Размер потока : 125 Мбайт (1%)
    Заголовок : VO
    Язык : Russian
    Default : Нет
    Forced : Нет

    Аудио #3
    Идентификатор : 4
    Формат : AC-3
    Формат/Информация : Audio Coding 3
    Расширение режима : CM (complete main)
    Параметр Endianness формата : Big
    Идентификатор кодека : A_AC3
    Продолжительность : 1 ч. 31 м.
    Вид битрейта : Постоянный
    Битрейт : 384 Кбит/сек
    Каналы : 6 каналов
    Расположение каналов : Front: L C R, Side: L R, LFE
    Частота : 48,0 КГц
    Битовая глубина : 16 бит
    Метод сжатия : С потерями
    Размер потока : 251 Мбайт (3%)
    Язык : English
    Default : Нет
    Forced : Нет

    Текст #1
    Идентификатор : 5
    Формат : UTF-8
    Идентификатор кодека : S_TEXT/UTF8
    Идентификатор кодека/Информация : UTF-8 Plain Text
    Язык : Russian
    Default : Нет
    Forced : Нет

    Текст #2
    Идентификатор : 6
    Формат : UTF-8
    Идентификатор кодека : S_TEXT/UTF8
    Идентификатор кодека/Информация : UTF-8 Plain Text
    Язык : English
    Default : Нет
    Forced : Нет
    Свернуть


    [img]http://s41.radikal.ru/i094/1709/2f/4b25b4b22fe1.png[/img][img]http://s019.radikal.ru/i632/1709/db/8111b66d7f4c.png[/img][img]http://s019.radikal.ru/i624/1709/d6/efada0dbde06.png[/img][img]http://s019.radikal.ru/i626/1709/f5/11622917b7c7.png[/img]
    [img]http://s02.radikal.ru/i175/1709/47/afc2c7d04538.png[/img][img]http://s018.radikal.ru/i521/1709/67/0f0a1f6f310a.png[/img][img]http://s016.radikal.ru/i334/1709/9c/0c853fb1dadb.png[/img][img]http://s018.radikal.ru/i510/1709/d7/64b2b8f1e066.png[/img]
    Похожие раздачи Искать похожие
    Инструкция по скачиванию
     1  Качаем uTorrent версии 2.0 и выше
     2  После установки, жмем выше под постером на ссылку Скачать [MediaGet] или Скачать .torrent
     3  Открываем скачанный файл через соответствующий клиент: MediaGet или uTorrent
     4  Ждем пока подключатся участники
     5  Качаем
    Комментарии о  Рикер / Reeker | WEBRip 1080p 
    Ближайшее в кино
    Вверх