• Игры для PS4
  • Игры для PS3
  • Игры для XBOX360
  • Игры для PC
  • Игры для PS2
  • Игры для PSP
  • Для телефонов
  • Музыка
  • Книги / Журналы
  • Обои
  • Опрос
    Удобен ли сайт в использовании?
      0
    • Очень удобен, все понятно1,1,false,300,full
    • Удобен1,2,false,300,full
    • Средне1,3,false,300,full
    • Неудобен, трудно ориентироваться1,4,false,300,full
    • Совсем неудобен1,5,false,300,full
    Статистика
    Всего онлайн -
    Гостей -
    Пользователей -
    Короли трекера
    
    Благодарности () Закрыть
    Информация о фильме
    Название: Сын председателя
    Оригинальное название: Сын старшыні
    Год выхода: 1976
    Жанр: Драма
    Режиссер: Вячеслав Никифоров
    В ролях: Александр Самойлов, Владимир Самойлов, Татьяна Алексеева, Бронюс Бабкаускас, Ольга Гаспарова, Михаил Кокшенов, Ирина Мазуркевич, Римма Маркова, Лилита Озолиня, Нина Розанцева, Анатолий Столбов

    О фильме:
    Всеми уважаемый председатель Яков Русак, уходя на пенсию, выдвигает в качестве преемника своего сына Алексея, окончившего институт и защитившего диссертацию. Однако Русак-младший, по-своему мечтающий о переустройстве своего села, не собирается продолжать традиции отца в руководстве колхозом...

    Дополнительная информация: Во время трансляции фильма присутствуют полупрозрачные анонсы передач внизу экрана



    Страна: СССР, Белорусская ССР
    Студия: Беларусьфильм
    Продолжительность: 01:21:15
    Перевод: Не требуется

    Файл
    Кодек: XviD
    Качество: SATRip Исходник
    Видео: 656x352 (1.85:1), 25 fps, XviD build 73 ~1142 kbps avg, 0.20 bit/pixel
    Звук: 48 kHz, MPEG Layer 3, 2 ch, ~128.00 kbps avg
    Субтитры: Отсутствуют

    Семпл

    MI
    General
    Complete name               : D:ТоррентыРип от ШкиперСын председателяSyn_predsedatelja_1976.SATRip by shkiper.avi
    Format                      : AVI
    Format/Info                 : Audio Video Interleave
    File size                   : 744 MiB
    Duration                    : 1 h 21 min
    Overall bit rate            : 1 281 kb/s
    Writing application         : VirtualDubMod 1.5.10.3 | www.virtualdub-fr.org || (build 2550/release)
    Writing library             : VirtualDubMod build 2550/release

    Video
    ID                          : 0
    Format                      : MPEG-4 Visual
    Format profile              : Advanced Simple@L5
    Format settings, BVOP       : 1
    Format settings, QPel       : No
    Format settings, GMC        : No warppoints
    Format settings, Matrix     : Custom
    Codec ID                    : XVID
    Codec ID/Hint               : XviD
    Duration                    : 1 h 21 min
    Bit rate                    : 1 143 kb/s
    Width                       : 656 pixels
    Height                      : 352 pixels
    Display aspect ratio        : 1.85:1
    Frame rate                  : 25.000 FPS
    Color space                 : YUV
    Chroma subsampling          : 4:2:0
    Bit depth                   : 8 bits
    Scan type                   : Progressive
    Compression mode            : Lossy
    Bits/(Pixel*Frame)          : 0.198
    Stream size                 : 664 MiB (89%)
    Writing library             : XviD 73

    Audio
    ID                          : 1
    Format                      : MPEG Audio
    Format version              : Version 1
    Format profile              : Layer 3
    Codec ID                    : 55
    Codec ID/Hint               : MP3
    Duration                    : 1 h 21 min
    Bit rate mode               : Constant
    Bit rate                    : 128 kb/s
    Channel(s)                  : 2 channels
    Sampling rate               : 48.0 kHz
    Compression mode            : Lossy
    Stream size                 : 74.4 MiB (10%)
    Alignment                   : Aligned on interleaves
    Interleave, duration        : 40  ms (1.00 video frame)
    Interleave, preload duratio : 504  ms
    Writing library             : LAME3.99r
    Encoding settings           : -m s -V 4 -q 2 -lowpass 17 -b 128Свернуть


    Скриншоты
    [screen]http://i91.fastpic.ru/big/2017/0918/14/35e0a2796ce079861e42552e34485014.png[/screen][screen]http://i91.fastpic.ru/big/2017/0918/e5/bf42d910a457c810b598d53cbc0db7e5.png[/screen][screen]http://i91.fastpic.ru/big/2017/0918/95/5138278a21e8b872c52ce6220cf87d95.png[/screen][screen]http://i91.fastpic.ru/big/2017/0918/d6/9c4bdd50ddb7a716c9aaa52c16c355d6.png[/screen][screen]http://i91.fastpic.ru/big/2017/0918/e4/93df14ef111ae3a8cfccafb8073d47e4.png[/screen][screen]http://i91.fastpic.ru/big/2017/0918/aa/5ffcfd18e2b2b330c0fc71aeaa0185aa.png[/screen][screen]http://i91.fastpic.ru/big/2017/0918/e7/c18b1166123e9bc2c3e3a2cf5dcaa8e7.png[/screen]Свернуть
    Инструкция по скачиванию
     1  Качаем uTorrent версии 2.0 и выше
     2  После установки, жмем выше под постером на ссылку Скачать [MediaGet] или Скачать .torrent
     3  Открываем скачанный файл через соответствующий клиент: MediaGet или uTorrent
     4  Ждем пока подключатся участники
     5  Качаем
    Комментарии о  Сын председателя / Сын старшыні | SATRip 
    Ближайшее в кино
    Вверх