• Игры для PS4
  • Игры для PS3
  • Игры для XBOX360
  • Игры для PC
  • Игры для PS2
  • Игры для PSP
  • Для телефонов
  • Музыка
  • Книги/Журналы
  • Обои
  •  
    Опрос
    Откуда Вы о нас узнали?
      0
    • От знакомых2,1,false,300,full
    • Из социальных сетей2,2,false,300,full
    • Из поисковых систем2,3,false,300,full
    • Другое2,4,false,300,full
    Статистика
    Загрузка...
    Пророк / Un prophète | BDRip 720p
    Статус  Проверено
    В закладки
    Модератор: Max

    Пророк / Un prophète | BDRip 720p [Фильмы 2009] скачать торрентом/torrent бесплатно

    Год выхода
    Категории
    Язык
    Закачал
    Max | 18 сентября 2017 в 15ч 25м 22с
    Раздел
    Отзывов
    0
    Раздают: 2 Качают: 1 Скачали: 3 Размер: 16.57 GB
    Инфо о раздаче | Благодарности |
    0/5
    0
    0 5 0
    Поддержи нас — расскажи друзьям!
    Orbitum
    Новый интернет-браузер Быстрее загружает сайты Экономит интернет—трафик Меняет оформление страницы ВК Блокирует всю рекламу на сайтах Загружает торренты как

    µTorrent

    клиент
    Объеденяет все твои чаты из соц. сетей в один Проигрывает твою музыку не заходя во ВКонтакте
    Скачать и многое другое... Подробности на сайте производителя
    «Ему 19. Против него весь мир. Но Малик готов его завоевать»

    Информация о фильме
    Название: Пророк
    Оригинальное название: Un prophète
    Год выхода: 2009
    Жанр: Драма, криминал
    Режиссер: Жак Одиар
    В ролях: Тахар Рахим, Нильс Ареструп, Адель Беншериф, Хайсем Якуби, Реда Катеб, Жан-Филипп Риччи, Жиль Коэн, Антуан Баслер, Лейла Бекти

    О фильме:
    Приговоренный к шести годам тюрьмы, Малик Эль Джебена кажется на фоне других заключенных самым «зеленым» и самым уязвимым. Ему 19 лет. Он не умеет ни писать, ни читать. За стенами тюрьмы у него нет близких.

    Все меняется, когда Лучано, лидер авторитетной банды корсиканцев, решает поручить Малику ряд опасных и рискованных миссий… Выполнение любой из этих «миссий» под прессингом корсиканцев могло бы сломить кого угодно, но не его. Каждое задание закаляет Малика. Он быстро учится жизни в новом для себя мире. Завоевывает доверие корсиканцев и мусульман. И вскоре начинает вынашивать собственные дерзкие планы…



    Страна: Франция, Италия
    Студия: BIM Distribuzione, Chic Films, Page 114, Why Not Productions
    Продолжительность: 02:35:22
    Перевод:
    Профессиональный (полное дублирование) | R5
    Профессиональный (многоголосый, закадровый) | R5

    В дублированной дорожке встречается нецензурная лексика

    Файл
    Качество: BDRip 720p
    Формат: MKV
    Кодек: MPEG-4 AVC
    Видео: 1280x692 (1,85:1), 23,976 fps, MPEG-4 AVC ~ 12,6 Мbps avg,  0.591 bit/pixel
    Аудио: DTS, 48,0 kHz, 6 ch, ~755.00 kbps avg | русский | Профессиональный (полное дублирование) | R5
    Аудио: АС3, 48,0 kHz, 6 ch, ~448.00 kbps avg | русский | Профессиональный (многоголосый, закадровый) | R5
    Аудио: DTS, 48,0 kHz, 6 ch, ~1509.00 kbps avg | французский | Оригинал

    Субтитры: Русские, английские

    Инфо-файл
    Общее
    Уникальный идентификатор                 : 201287356249561283249332128359831076166 (0x976E88E0F81B9B09BDDC60F92FB47D46)
    Полное имя                               : Un.prophete.2009.x264.BDRip.720p.BLUEBIRD.mkv
    Формат                                   : Matroska
    Версия формата                           : Version 4 / Version 2
    Размер файла                             : 16,6 Гбайт
    Продолжительность                        : 2 ч. 35 м.
    Общий поток                              : 15,3 Мбит/сек
    Название фильма                          : Un.prophete.2009.x264.BDRip.720p.BLUEBIRD
    Дата кодирования                         : UTC 2017-09-11 12:50:03
    Программа кодирования                    : mkvmerge v7.9.0 ("Birds") 64bit
    Библиотека кодирования                   : libebml v1.3.1 + libmatroska v1.4.2

    Видео
    Идентификатор                            : 1
    Формат                                   : AVC
    Формат/Информация                        : Advanced Video Codec
    Профиль формата                          : High@L4.1
    Параметр CABAC формата                   : Да
    Параметр ReFrames формата                : 9 кадров
    Идентификатор кодека                     : V_MPEG4/ISO/AVC
    Продолжительность                        : 2 ч. 35 м.
    Битрейт                                  : 12,6 Мбит/сек
    Ширина                                   : 1280 пикселей
    Высота                                   : 692 пикселя
    Соотношение сторон                       : 1,85:1
    Режим частоты кадров                     : Постоянный
    Частота кадров                           : 23,976 (24000/1001) кадра/сек
    Цветовое пространство                    : YUV
    Субдискретизация насыщенности            : 4:2:0
    Битовая глубина                          : 8 бит
    Тип развёртки                            : Прогрессивная
    Бит/(Пиксели*Кадры)                      : 0.591
    Размер потока                            : 13,6 Гбайт (82%)
    Заголовок                                : Un.prophete.2009.x264.BDRip.720p.BLUEBIRD
    Библиотека кодирования                   : x264 core 152 r2851 ba24899
    Настройки программы                      : cabac=1 / ref=9 / deblock=1:-3:-3 / analyse=0x3:0x133 / me=umh / subme=11 / psy=1 / psy_rd=1.05:0.15 / mixed_ref=1 / me_range=48 / chroma_me=1 / trellis=2 / 8x8dct=1 / cqm=0 / deadzone=21,11 / fast_pskip=0 / chroma_qp_offset=-3 / threads=12 / lookahead_threads=3 / sliced_threads=0 / nr=0 / decimate=0 / interlaced=0 / bluray_compat=0 / constrained_intra=0 / bframes=16 / b_pyramid=2 / b_adapt=2 / b_bias=0 / direct=3 / weightb=1 / open_gop=0 / weightp=2 / keyint=240 / keyint_min=23 / scenecut=40 / intra_refresh=0 / rc_lookahead=80 / rc=crf / mbtree=0 / crf=19.0 / qcomp=0.65 / qpmin=0 / qpmax=69 / qpstep=4 / vbv_maxrate=62500 / vbv_bufsize=78125 / crf_max=0.0 / nal_hrd=none / filler=0 / ip_ratio=1.30 / pb_ratio=1.20 / aq=1:0.80
    Язык                                     : English
    Default                                  : Да
    Forced                                   : Нет

    Аудио #1
    Идентификатор                            : 2
    Формат                                   : DTS
    Формат/Информация                        : Digital Theater Systems
    Режим                                    : 16
    Параметр Endianness формата              : Big
    Идентификатор кодека                     : A_DTS
    Продолжительность                        : 2 ч. 35 м.
    Вид битрейта                             : Постоянный
    Битрейт                                  : 755 Кбит/сек
    Каналы                                   : 6 каналов
    Расположение каналов                     : Front: L C R, Side: L R, LFE
    Частота                                  : 48,0 КГц
    Частота кадров                           : 93,750 кадра/сек (512 spf)
    Битовая глубина                          : 24 бит
    Метод сжатия                             : С потерями
    Размер потока                            : 838 Мбайт (5%)
    Заголовок                                : Дублированный (R5)
    Язык                                     : Russian
    Default                                  : Да
    Forced                                   : Нет

    Аудио #2
    Идентификатор                            : 3
    Формат                                   : AC-3
    Формат/Информация                        : Audio Coding 3
    Параметр Endianness формата              : Big
    Идентификатор кодека                     : A_AC3
    Продолжительность                        : 2 ч. 35 м.
    Вид битрейта                             : Постоянный
    Битрейт                                  : 448 Кбит/сек
    Каналы                                   : 6 каналов
    Расположение каналов                     : Front: L C R, Side: L R, LFE
    Частота                                  : 48,0 КГц
    Частота кадров                           : 31,250 кадров/сек (1536 spf)
    Битовая глубина                          : 16 бит
    Метод сжатия                             : С потерями
    Размер потока                            : 498 Мбайт (3%)
    Заголовок                                : Профессиональный многоголосый (R5)
    Язык                                     : Russian
    Default                                  : Нет
    Forced                                   : Нет

    Аудио #3
    Идентификатор                            : 4
    Формат                                   : DTS
    Формат/Информация                        : Digital Theater Systems
    Режим                                    : 16
    Параметр Endianness формата              : Big
    Идентификатор кодека                     : A_DTS
    Продолжительность                        : 2 ч. 35 м.
    Вид битрейта                             : Постоянный
    Битрейт                                  : 1509 Кбит/сек
    Каналы                                   : 6 каналов
    Расположение каналов                     : Front: L C R, Side: L R, LFE
    Частота                                  : 48,0 КГц
    Частота кадров                           : 93,750 кадра/сек (512 spf)
    Битовая глубина                          : 24 бит
    Метод сжатия                             : С потерями
    Размер потока                            : 1,64 Гбайт (10%)
    Заголовок                                : French/Arabian/Corsican
    Язык                                     : French
    Default                                  : Нет
    Forced                                   : Нет

    Текст #1
    Идентификатор                            : 5
    Формат                                   : UTF-8
    Идентификатор кодека                     : S_TEXT/UTF8
    Идентификатор кодека/Информация          : UTF-8 Plain Text
    Продолжительность                        : 2 ч. 29 м.
    Битрейт                                  : 59 бит/сек
    ElementCount                             : 1362
    Размер потока                            : 65,7 Кбайт (0%)
    Заголовок                                : full
    Язык                                     : Russian
    Default                                  : Нет
    Forced                                   : Нет

    Текст #2
    Идентификатор                            : 6
    Формат                                   : UTF-8
    Идентификатор кодека                     : S_TEXT/UTF8
    Идентификатор кодека/Информация          : UTF-8 Plain Text
    Продолжительность                        : 2 ч. 29 м.
    Битрейт                                  : 32 бит/сек
    ElementCount                             : 1027
    Размер потока                            : 35,4 Кбайт (0%)
    Заголовок                                : full
    Язык                                     : English
    Default                                  : Нет
    Forced                                   : Нет

    Меню
    00:00:00.000                             : en:00:00:00.000
    00:11:04.288                             : en:00:11:04.288
    00:23:00.003                             : en:00:23:00.003
    00:29:41.696                             : en:00:29:41.696
    00:37:46.180                             : en:00:37:46.180
    00:49:14.409                             : en:00:49:14.409
    01:01:46.702                             : en:01:01:46.702
    01:08:47.248                             : en:01:08:47.248
    01:21:10.949                             : en:01:21:10.949
    01:32:47.561                             : en:01:32:47.561
    01:40:46.707                             : en:01:40:46.707
    01:48:02.684                             : en:01:48:02.684
    02:00:15.625                             : en:02:00:15.625
    02:11:16.702                             : en:02:11:16.702
    02:19:48.171                             : en:02:19:48.171
    02:25:53.161                             : en:02:25:53.161


    Еще похожие »

    Как скачать?
    1. Качаем UTorrent версии 2.0 и выше отсюда
    2. После установки, жмем на ссылку Скачать торрент.
    3. Открываем его через utorrent.
    4. Ждем пока подключатся участники.
    5. Качаем.


    Комментарии о Пророк / Un prophète | BDRip 720p
    Добавлять комментарии могут только зарегистрированные пользователи

    Зарегистрироваться или Войти


    Ближайшее в кино
    • Безумие Георга III дата выхода 20 ноября 2018Безумие Георга III
      Дата выхода: 20 ноября 2018
    • 7226|Догвилль|22 ноября 2018|200|300Догвилль
      Дата выхода: 22 ноября 2018
    • 1009784|Апгрейд|22 ноября 2018|200|300Апгрейд
      Дата выхода: 22 ноября 2018
    • 988782|Ральф против интернета|22 ноября 2018|200|300Ральф против интернета
      Дата выхода: 22 ноября 2018
    • 965901|Вдовы|22 ноября 2018|200|300Вдовы
      Дата выхода: 22 ноября 2018
    • 1011685|Нация убийц|22 ноября 2018|200|300Нация убийц
      Дата выхода: 22 ноября 2018
    • 891414|Жена|22 ноября 2018|200|300Жена
      Дата выхода: 22 ноября 2018
    • 934207|Мотылёк|22 ноября 2018|200|300Мотылёк
      Дата выхода: 22 ноября 2018
    • 1044912|Вечерняя школа|22 ноября 2018|200|300Вечерняя школа
      Дата выхода: 22 ноября 2018
    • 1036188|Быть Астрид Линдгрен|22 ноября 2018|200|300Быть Астрид Линдгрен
      Дата выхода: 22 ноября 2018
    • 1048852|Помешанный на времени|22 ноября 2018|200|300Помешанный на времени
      Дата выхода: 22 ноября 2018
    • 1049775|Подбросы|22 ноября 2018|200|300Подбросы
      Дата выхода: 22 ноября 2018
    • 1108741|Я — миллиардер|22 ноября 2018|200|300Я — миллиардер
      Дата выхода: 22 ноября 2018
    • 1118041|Три лица|22 ноября 2018|200|300Три лица
      Дата выхода: 22 ноября 2018
    • 1209190|МУЛЬТ в кино. Выпуск 85. Мамин праздник|24 ноября 2018|200|300МУЛЬТ в кино. Выпуск 85. Мамин праздник
      Дата выхода: 24 ноября 2018
    Вверх