• Игры для PS4
  • Игры для PS3
  • Игры для XBOX360
  • Игры для PC
  • Игры для PS2
  • Игры для PSP
  • Для телефонов
  • Музыка
  • Книги / Журналы
  • Обои
  • Опрос
    Удобен ли сайт в использовании?
      0
    • Очень удобен, все понятно1,1,false,300,full
    • Удобен1,2,false,300,full
    • Средне1,3,false,300,full
    • Неудобен, трудно ориентироваться1,4,false,300,full
    • Совсем неудобен1,5,false,300,full
    Статистика
    Всего онлайн -
    Гостей -
    Пользователей -
    Короли трекера
    
    Благодарности () Закрыть
    Информация о фильме
    Название: В городе Сочи темные ночи
    Год выхода: 1989
    Жанр:  Драма, трагикомедия
    Режиссёр: Василий Пичул
    В ролях: Алексей Жарков, Наталья Негода, Андрей Соколов, Анастасия Вертинская, Александр Леньков, Людмила Иванова, Александр Миронов, Александр Кавалеров, Анна Тихонова, Григорий Мануков, Александр Негреба, Вацлав Дворжецкий

    О фильме: Действие картины происходит в разных городах — столице, северном провинциальном городке и, конечно, в Сочи. Персонажи — обычные люди — врачи и артисты, продавцы и рабочие, оказавшиеся перед лицом последствий печальных событий перестройки. На улицах грязно, в магазинах пусто, в сознании неопределенность… Но жизнь продолжается и каждый пытается идти своей дорогой. Лена — 25-летняя недоучившаяся студентка, брошенная любимым человеком и пытающаяся хоть как-то наладить свою жизнь. Она плывет по течению, в надежде на лучший поворот событий. Сантехник Степаныч — матёрый аферист, ловко входящий в доверие к людям и исчезающий с крупными суммами денег. Другие действующие лица — их знакомые, коллеги, родные, пути которых постоянно пересекаются и самым неожиданным образом выстраивают ход событий этой истории...

    [img]http://i48.fastpic.ru/big/2013/0510/bb/3b1402464a3f305aa0536786b77f41bb.png[/img]

    Страна: СССР, Италия
    Студия: Студия Горького, Подарок, Excelsior Film
    Продолжительность: 02:02:23
    Перевод: Не требуется (оригинальный)

    Файл
    Формат: avi
    Качество: SATRip (DVB)
    Видео: XviD, 688х464, 25fps, 1494kbps
    Аудио: MPEG Layer 3, 2ch, 48000Hz, 192kbps

    [img]http://i040.radikal.ru/0908/29/bc9c8e521fcb.gif[/img]

    MediaInfo

    Общее
    Полное имя                               : V.Gorode.Sochi.1989.O.SATRip.1400.CurHaJI.avi
    Формат                                   : AVI
    Формат/Информация                        : Audio Video Interleave
    Размер файла                             : 1,45 Гбайт
    Продолжительность                        : 2 ч. 2 м.
    Общий поток                              : 1695 Кбит/сек
    Название фильма                          : V.Gorode.Sochi.1989.O.SATRip.1400.CurHaJI
    Программа кодирования                    : VirtualDubMod 1.5.10.3 | www.virtualdub-fr.org || (build 2550/release)
    Библиотека кодирования                   : VirtualDub build 35491/release

    Видео
    Идентификатор                            : 0
    Формат                                   : MPEG-4 Visual
    Профиль формата                          : Advanced Simple@L5
    Параметр BVOP формата                    : 1
    Параметр QPel формата                    : Нет
    Параметр GMC формата                     : Без точки перехода
    Параметр матрицы формата                 : Выборочная
    Идентификатор кодека                     : XVID
    Идентификатор кодека/Подсказка           : XviD
    Продолжительность                        : 2 ч. 2 м.
    Битрейт                                  : 1494 Кбит/сек
    Ширина                                   : 688 пикселей
    Высота                                   : 464 пикселя
    Соотношение сторон                       : 3:2
    Частота кадров                           : 25,000 кадров/сек
    Цветовое пространство                    : YUV
    Субдискретизация насыщенности            : 4:2:0
    Битовая глубина                          : 8 бит
    Тип развёртки                            : Прогрессивная
    Метод сжатия                             : С потерями
    Бит/(Пиксели*Кадры)                      : 0.187
    Размер потока                            : 1,28 Гбайт (88%)
    Библиотека кодирования                   : XviD 73

    Аудио
    Идентификатор                            : 1
    Формат                                   : MPEG Audio
    Версия формата                           : Version 1
    Профиль формата                          : Layer 3
    Идентификатор кодека                     : 55
    Идентификатор кодека/Подсказка           : MP3
    Продолжительность                        : 2 ч. 2 м.
    Вид битрейта                             : Постоянный
    Битрейт                                  : 192 Кбит/сек
    Каналы                                   : 2 канала
    Частота                                  : 48,0 КГц
    Метод сжатия                             : С потерями
    Размер потока                            : 168 Мбайт (11%)
    Выравнивание                             : Соединение по промежуткам
    Продолжительность промежутка             : 40  мс. (1,00 видеокадр)
    Время предзагрузки промежутка            : 504  мс.
    Библиотека кодирования                   : LAME3.99r
    Настройки программы                      : -m s -V 4 -q 2 -lowpass 18.6 -b 192
    Свернуть


    Скриншоты

    [screen]http://i89.fastpic.ru/big/2017/0909/72/b41a4001c781bd62d45f35b548556172.png[/screen][screen]http://i89.fastpic.ru/big/2017/0909/ac/812d31800d1e02a6d9ae7309573daeac.png[/screen][screen]http://i89.fastpic.ru/big/2017/0909/88/ce5120b2c43ea0dacf1887e2de7ddc88.png[/screen][screen]http://i89.fastpic.ru/big/2017/0909/ef/c7aeda8871b3b5db8302a92d0f365cef.png[/screen]
    Свернуть
    Инструкция по скачиванию
     1  Качаем uTorrent версии 2.0 и выше
     2  После установки, жмем выше под постером на ссылку Скачать [MediaGet] или Скачать .torrent
     3  Открываем скачанный файл через соответствующий клиент: MediaGet или uTorrent
     4  Ждем пока подключатся участники
     5  Качаем
    Комментарии о  В городе Сочи темные ночи | SATRip 
    Ближайшее в кино
    Вверх