• Игры для PS4
  • Игры для PS3
  • Игры для XBOX360
  • Игры для PC
  • Игры для PS2
  • Игры для PSP
  • Для телефонов
  • Музыка
  • Книги / Журналы
  • Обои
  • Опрос
    Удобен ли сайт в использовании?
      0
    • Очень удобен, все понятно1,1,false,300,full
    • Удобен1,2,false,300,full
    • Средне1,3,false,300,full
    • Неудобен, трудно ориентироваться1,4,false,300,full
    • Совсем неудобен1,5,false,300,full
    Статистика
    Всего онлайн -
    Гостей -
    Пользователей -
    Короли трекера
    
    Благодарности () Закрыть
    Информация о фильме
    Название: Звёздный десант: Предатель Марса
    Оригинальное название: Starship Troopers: Traitor of Mars
    Год выхода: 2017
    Жанр:  мультфильм, фантастика, боевик
    Режиссер: Синдзи Арамаки, Масару Мацумото
    В ролях: Каспер Ван Дин, Дина Мейер, ДеРэй Дэвис, Люси Кристиан, Джастин Доран, Scott Gibbs, Эмили Невез, Juliet Simmons

    О фильме :
    На колонизированном людьми Марсе жизнь течёт мирно и спокойно. В остальной Федерации марсиан считают недалёкими, и десантник Джон Рико уже тоже начинает сомневаться в способностях своего отряда — раз за разом команда проваливает на симуляторе миссии по уничтожению колонии жуков. И когда внезапно Марс атакуют полчища уже настоящих гигантских насекомых, отряду новичков придется доказать, что марсиане способны постоять за родную планету.



    Выпущено: Япония, США / Sony Pictures Entertainment (SPE), Stage 6 Films, Lucent Pictures Entertainment
    Продолжительность: 01:27:44
    Озвучивание: Профессиональный (многоголосый, закадровый) [iTunes]

    Файл
    Формат: MKV
    Качество: BDRip-AVC (Blu-Ray Remux 1080p)
    Видео: MPEG-4 AVC, 736x416, ~ 1115 Кбит/с
    Аудио: [img]http://i93.fastpic.ru/big/2017/0727/c0/4b72f0369a3393219ed5935e91fc15c0.gif[/img] AAC-LC, 2 ch, ~72 Кбит/с
    Субтитры: Русские , украинские

    MI
    Общее
    Уникальный идентификатор : 246363905542012529221259388515009647306 (0xB957F658A26E2C69A5AC75346DEB52CA)
    Полное имя : D:MOVIESZvezdnyi.desant.Predatel".Marsa.2017.ExKinoRay.mkv
    Формат : Matroska
    Версия формата : Version 4 / Version 2
    Размер файла : 747 Мбайт
    Продолжительность : 1 ч. 27 м.
    Общий поток : 1190 Кбит/сек
    Дата кодирования : UTC 2017-09-18 13:46:11
    Программа кодирования : mkvmerge v15.0.0 ("Duel with the Devil") 64-bit
    Библиотека кодирования : libebml v1.3.5 + libmatroska v1.4.5

    Видео
    Идентификатор : 1
    Формат : AVC
    Формат/Информация : Advanced Video Codec
    Профиль формата : High@L4.1
    Параметр CABAC формата : Да
    Параметр RefFrames формата : 10 кадров
    Идентификатор кодека : V_MPEG4/ISO/AVC
    Продолжительность : 1 ч. 27 м.
    Битрейт : 1115 Кбит/сек
    Ширина : 736 пикселей
    Высота : 416 пикселей
    Соотношение сторон : 16:9
    Режим частоты кадров : Постоянный
    Частота кадров : 23,976 (24000/1001) кадра/сек
    Цветовое пространство : YUV
    Субдискретизация насыщенности : 4:2:0
    Битовая глубина : 8 бит
    Тип развёртки : Прогрессивная
    Бит/(Пиксели*Кадры) : 0.152
    Размер потока : 700 Мбайт (94%)
    Библиотека кодирования : x264 core 130 r2273 b3065e6
    Настройки программы : cabac=1 / ref=10 / deblock=1:-2:-2 / analyse=0x3:0x113 / me=umh / subme=11 / psy=1 / psy_rd=1.00:0.20 / mixed_ref=1 / me_range=32 / chroma_me=1 / trellis=2 / 8x8dct=1 / cqm=0 / deadzone=21,11 / fast_pskip=0 / chroma_qp_offset=-3 / threads=6 / lookahead_threads=1 / sliced_threads=0 / nr=0 / decimate=0 / interlaced=0 / bluray_compat=0 / constrained_intra=0 / bframes=10 / b_pyramid=2 / b_adapt=2 / b_bias=0 / direct=3 / weightb=1 / open_gop=0 / weightp=2 / keyint=240 / keyint_min=23 / scenecut=40 / intra_refresh=0 / rc_lookahead=40 / rc=2pass / mbtree=0 / bitrate=1115 / ratetol=1.0 / qcomp=0.60 / qpmin=0 / qpmax=69 / qpstep=4 / cplxblur=20.0 / qblur=0.5 / vbv_maxrate=50000 / vbv_bufsize=62500 / nal_hrd=none / ip_ratio=1.40 / pb_ratio=1.30 / aq=1:1.00
    Default : Да
    Forced : Нет

    Аудио
    Идентификатор : 2
    Формат : AAC
    Формат/Информация : Advanced Audio Codec
    Профиль формата : LC
    Идентификатор кодека : A_AAC
    Продолжительность : 1 ч. 27 м.
    Битрейт : 72,0 Кбит/сек
    Каналы : 2 канала
    Расположение каналов : Front: L R
    Частота : 48,0 КГц
    Частота кадров : 46,875 кадров/сек (1024 SPF)
    Метод сжатия : С потерями
    Задержка видео : 9 мс.
    Размер потока : 45,2 Мбайт (6%)
    Default : Да
    Forced : Нет

    Текст #1
    Идентификатор : 3
    Формат : UTF-8
    Идентификатор кодека : S_TEXT/UTF8
    Идентификатор кодека/Информация : UTF-8 Plain Text
    Продолжительность : 1 ч. 27 м.
    Битрейт : 86 бит/сек
    ElementCount : 1158
    Размер потока : 55,3 Кбайт (0%)
    Заголовок : iTunes
    Язык : Russian
    Default : Нет
    Forced : Нет

    Текст #2
    Идентификатор : 4
    Формат : UTF-8
    Идентификатор кодека : S_TEXT/UTF8
    Идентификатор кодека/Информация : UTF-8 Plain Text
    Продолжительность : 1 ч. 27 м.
    Битрейт : 86 бит/сек
    ElementCount : 1166
    Размер потока : 54,9 Кбайт (0%)
    Заголовок : Full
    Язык : Ukrainian
    Default : Нет
    Forced : Нет

    Меню
    00:00:00.000 : en:(01)00:00:00:000
    00:06:52.786 : en:(02)00:06:52:786
    00:11:49.165 : en:(03)00:11:49:165
    00:15:55.828 : en:(04)00:15:55:828
    00:22:11.078 : en:(05)00:22:11:078
    00:28:16.277 : en:(06)00:28:16:277
    00:34:40.119 : en:(07)00:34:40:119
    00:38:02.027 : en:(08)00:38:02:027
    00:41:06.463 : en:(09)00:41:06:463
    00:51:04.478 : en:(10)00:51:04:478
    00:56:53.242 : en:(11)00:56:53:242
    01:02:22.280 : en:(12)01:02:22:280
    01:06:19.934 : en:(13)01:06:19:934
    01:13:16.100 : en:(14)01:13:16:100
    01:18:19.985 : en:(15)01:18:19:985
    01:22:40.872 : en:(16)01:22:40:872
    Свернуть


    Скриншоты
    [screen]http://i91.fastpic.ru/big/2017/0918/a7/28499fc7baa51ab453741a77f17eb6a7.jpg[/screen][screen]http://i91.fastpic.ru/big/2017/0918/e9/35af08a0bfaac96516fd9737a1ca56e9.jpg[/screen][screen]http://i93.fastpic.ru/big/2017/0918/4e/20821dd91349033322e961fc71528a4e.jpg[/screen][screen]http://i89.fastpic.ru/big/2017/0918/ee/0ac429d830f7ef2cdabb3d4500de37ee.jpg[/screen]

    [screen]http://i89.fastpic.ru/big/2017/0918/ca/2164f41954d275e58ffff4828e3c29ca.jpg[/screen][screen]http://i91.fastpic.ru/big/2017/0918/8e/8d9a5efd9001de702bbadd8c75f7a28e.jpg[/screen][screen]http://i89.fastpic.ru/big/2017/0918/7d/d2ed30776bbd9ec543ecafce2800e37d.jpg[/screen][screen]http://i91.fastpic.ru/big/2017/0918/e1/7585e9acc262e142be2568e608f909e1.jpg[/screen]Свернуть
    Похожие раздачи Искать похожие
    Инструкция по скачиванию
     1  Качаем uTorrent версии 2.0 и выше
     2  После установки, жмем выше под постером на ссылку Скачать [MediaGet] или Скачать .torrent
     3  Открываем скачанный файл через соответствующий клиент: MediaGet или uTorrent
     4  Ждем пока подключатся участники
     5  Качаем
    Комментарии о  Звёздный десант: Предатель Марса / Starship Troopers: Traitor of Mars | BDRip-AVC 
    Ближайшее в кино
    Вверх