• Игры для PS4
  • Игры для PS3
  • Игры для XBOX360
  • Игры для PC
  • Игры для PS2
  • Игры для PSP
  • Для телефонов
  • Музыка
  • Книги/Журналы
  • Обои
  •  
    Опрос
    Удобен ли сайт в использовании?
      0
    • Очень удобен, все понятно1,1,false,300,full
    • Удобен1,2,false,300,full
    • Средне1,3,false,300,full
    • Неудобен, трудно ориентироваться1,4,false,300,full
    • Совсем неудобен1,5,false,300,full
    Статистика
    Загрузка...
    Другая сторона Горы / The Other Side of the Mountain | WEB-DL 1080p
    Статус  Проверено
    В закладки
    Модератор: Max

    Другая сторона Горы / The Other Side of the Mountain | WEB-DL 1080p [Фильмы 1975] скачать торрентом/torrent бесплатно

    Год выхода
    Категории
    Язык
    Закачал
    Max | 18 сентября 2017 в 22ч 13м 22с
    Раздел
    Отзывов
    0
    Раздают: 0 Качают: 0 Скачали: 0 Размер: 10.05 GB
    Инфо о раздаче | Благодарности |
    0/5
    0
    0 5 0
    Поддержи нас — расскажи друзьям!
    Orbitum
    Новый интернет-браузер Быстрее загружает сайты Экономит интернет—трафик Меняет оформление страницы ВК Блокирует всю рекламу на сайтах Загружает торренты как

    µTorrent

    клиент
    Объеденяет все твои чаты из соц. сетей в один Проигрывает твою музыку не заходя во ВКонтакте
    Скачать и многое другое... Подробности на сайте производителя
    Информация о фильме
    Название: Другая сторона Горы
    Оригинальное название: The Other Side of the Mountain
    Год выхода: 1975
    Жанр: биография, драма, мелодрама
    Режиссер: Ларри Пирс / Larry Peerce
    В ролях: Мэрлин Хэссет, Бо Бриджес, Белинда Монтгомери, Нэн Мартин, Уильям Брайант, Дэбни Коулмен, Билл Винт, Хэмптон Фанчер, Уильям Рорик, Дори Бреннер

    О фильме:
    Талантливая, многообещающая лыжница Джилл Кинмонт могла одолеть любую гору и самый крутой склон. У нее был успех, поклонники, жених и многообещающая спортивная карьера. Пока однажды трагический случай накануне Олимпийских игр круто не изменил ее жизнь…


    Страна: США
    Студия: Universal Pictures, Filmways Pictures
    Продолжительность: 01:42:14
    Перевод: Профессиональный (многоголосый закадровый)

    Файл
    Кодек: h.264
    Качество: WEB-DL 1080p
    Видео: 1920x1040, 1.85:1, 13700 kbps, 23.976 fps
    Звук:
    Аудио: Русский / многоголосый закадровый, AC3, 2 ch, 48 KHz, 192 kbps
    Аудио 2: Английский, AC3, 2 ch, 48 KHz, 224 kbps
    Субтитры: английский (SRT)

    Семпл

    Скриншоты


    M.I

    General
    Unique ID                   : 208898547050004646148226426744789708635 (0x9D28658ECDB450C8B979C04FDC66AF5B)
    Complete name               : D:DownloadsThe.Other.Side.of.the.Mountain.1975.WEB-DL.1080p.mkv
    Format                      : Matroska
    Format version              : Version 4 / Version 2
    File size                   : 10.0 GiB
    Duration                    : 1 h 42 min
    Overall bit rate mode       : Variable
    Overall bit rate            : 14.1 Mb/s
    Encoded date                : UTC 2017-09-18 17:45:32
    Writing application         : mkvmerge v15.0.0 ("Duel with the Devil") 64-bit
    Writing library             : libebml v1.3.5 + libmatroska v1.4.5

    Video
    ID                          : 1
    Format                      : AVC
    Format/Info                 : Advanced Video Codec
    Format profile              : High@L4
    Format settings, CABAC      : Yes
    Format settings, ReFrames   : 4 frames
    Codec ID                    : V_MPEG4/ISO/AVC
    Duration                    : 1 h 42 min
    Bit rate mode               : Variable
    Bit rate                    : 13.7 Mb/s
    Maximum bit rate            : 15.0 Mb/s
    Width                       : 1 920 pixels
    Height                      : 1 040 pixels
    Display aspect ratio        : 1.85:1
    Frame rate mode             : Constant
    Frame rate                  : 23.976 (24000/1001) FPS
    Color space                 : YUV
    Chroma subsampling          : 4:2:0
    Bit depth                   : 8 bits
    Scan type                   : Progressive
    Bits/(Pixel*Frame)          : 0.285
    Stream size                 : 9.75 GiB (97%)
    Default                     : Yes
    Forced                      : No
    Color range                 : Limited
    Color primaries             : BT.709
    Transfer characteristics    : BT.709
    Matrix coefficients         : BT.709

    Audio #1
    ID                          : 2
    Format                      : AC-3
    Format/Info                 : Audio Coding 3
    Format settings, Endianness : Big
    Codec ID                    : A_AC3
    Duration                    : 1 h 42 min
    Bit rate mode               : Constant
    Bit rate                    : 192 kb/s
    Channel(s)                  : 2 channels
    Channel positions           : Front: L R
    Sampling rate               : 48.0 kHz
    Frame rate                  : 31.250 FPS (1536 spf)
    Bit depth                   : 16 bits
    Compression mode            : Lossy
    Stream size                 : 140 MiB (1%)
    Title                       : Профессиональный (многоголосый, закадровый)
    Language                    : Russian
    Service kind                : Complete Main
    Default                     : Yes
    Forced                      : No

    Audio #2
    ID                          : 3
    Format                      : E-AC-3
    Format/Info                 : Enhanced Audio Coding 3
    Format settings, Endianness : Big
    Codec ID                    : A_EAC3
    Duration                    : 1 h 42 min
    Bit rate mode               : Constant
    Bit rate                    : 224 kb/s
    Channel(s)                  : 2 channels
    Channel positions           : Front: L R
    Sampling rate               : 48.0 kHz
    Frame rate                  : 187.500 FPS (256 spf)
    Compression mode            : Lossy
    Stream size                 : 164 MiB (2%)
    Language                    : English
    Service kind                : Complete Main
    Default                     : No
    Forced                      : No

    Text
    ID                          : 4
    Format                      : UTF-8
    Codec ID                    : S_TEXT/UTF8
    Codec ID/Info               : UTF-8 Plain Text
    Duration                    : 1 h 38 min
    Bit rate                    : 58 b/s
    Count of elements           : 1406
    Stream size                 : 42.2 KiB (0%)
    Language                    : English
    Default                     : No
    Forced                      : No
    Еще похожие »

    Как скачать?
    1. Качаем UTorrent версии 2.0 и выше отсюда
    2. После установки, жмем на ссылку Скачать торрент.
    3. Открываем его через utorrent.
    4. Ждем пока подключатся участники.
    5. Качаем.


    Комментарии о Другая сторона Горы / The Other Side of the Mountain | WEB-DL 1080p
    Добавлять комментарии могут только зарегистрированные пользователи

    Зарегистрироваться или Войти


    Ближайшее в кино
    • Аллилуйя! дата выхода 13 ноября 2018Аллилуйя!
      Дата выхода: 13 ноября 2018
    • 1199695|Coldplay: A Head Full of Dreams|14 ноября 2018|200|300Coldplay: A Head Full of Dreams
      Дата выхода: 14 ноября 2018
    • 843479|Фантастические твари: Преступления Грин-де-Вальда|15 ноября 2018|200|300Фантастические твари: Преступления Грин-де-Вальда
      Дата выхода: 15 ноября 2018
    • 1070264|Догмэн|15 ноября 2018|200|300Догмэн
      Дата выхода: 15 ноября 2018
    • 1068448|Оцепеневшие от страха|15 ноября 2018|200|300Оцепеневшие от страха
      Дата выхода: 15 ноября 2018
    • 1065878|Холодная война|15 ноября 2018|200|300Холодная война
      Дата выхода: 15 ноября 2018
    • 933787|Не чужие|15 ноября 2018|200|300Не чужие
      Дата выхода: 15 ноября 2018
    • 1045040|Облепиховое лето|15 ноября 2018|200|300Облепиховое лето
      Дата выхода: 15 ноября 2018
    • 1085625|Соната|15 ноября 2018|200|300Соната
      Дата выхода: 15 ноября 2018
    • 1174349|Безумие Георга III|20 ноября 2018|200|300Безумие Георга III
      Дата выхода: 20 ноября 2018
    • 7226|Догвилль|22 ноября 2018|200|300Догвилль
      Дата выхода: 22 ноября 2018
    • 1009784|Апгрейд|22 ноября 2018|200|300Апгрейд
      Дата выхода: 22 ноября 2018
    • 988782|Ральф против интернета|22 ноября 2018|200|300Ральф против интернета
      Дата выхода: 22 ноября 2018
    • 965901|Вдовы|22 ноября 2018|200|300Вдовы
      Дата выхода: 22 ноября 2018
    • 1011685|Нация убийц|22 ноября 2018|200|300Нация убийц
      Дата выхода: 22 ноября 2018
    Вверх