• Игры для PS4
  • Игры для PS3
  • Игры для XBOX360
  • Игры для PC
  • Игры для PS2
  • Игры для PSP
  • Для телефонов
  • Музыка
  • Книги / Журналы
  • Обои
  • Опрос
    Удобен ли сайт в использовании?
      0
    • Очень удобен, все понятно1,1,false,300,full
    • Удобен1,2,false,300,full
    • Средне1,3,false,300,full
    • Неудобен, трудно ориентироваться1,4,false,300,full
    • Совсем неудобен1,5,false,300,full
    Статистика
    Всего онлайн -
    Гостей -
    Пользователей -
    Короли трекера
    
    Благодарности () Закрыть
    Название: Шум
    Оригинальное название: Noise
    Год выхода: 2007

    Страна: Австралия
    Студия: Retro Active Films
    Продолжительность: 01:48:01
    Жанр: триллер, драма, криминал

    Режиссер: Мэттью Савилл
    В ролях: Майа Томас, Кэрол Браун, Аарон Мерфи, Аарон Маклафлин, Брендан Коуэлл, Грег Уильямс, Грант Скиклуна, Ричард Пирос, ...

    Перевод:
    - Любительский (одноголосый, закадровый) DeMon
    - Субтитры

    О фильме: Во время убийства в поезде метрополитена, один полицейский теряет сознание и после этого у него обнаруживается шум и звон в голове. Он не помнит, что случилось и пытается понять, как это вылечить и что с ним произошло. В тоже время расследование этого трагического события начинает касаться его самого…



    Кодек: x264
    Качество: BDRip 1080p
    Видео: 1920x1072, 8048 kbps, 23,976 fps
    Аудио #1: AC-3, 6 ch, 640 kbps (Rus) - VO DeMon
    Аудио #2: AC-3, 6 ch, 640 kbps (Eng)
    Субтитры: русские, английские

    MediaInfo
    Общее
    Уникальный идентификатор : 172619657872941001836987914134477887509 (0x81DD563918F16777AF1CC22B9C545815)
    Полное имя : Шум (Noise) 2007 BDRip 1080p.mkv
    Формат : Matroska
    Версия формата : Version 2
    Размер файла : 7,03 Гбайт
    Продолжительность : 1 ч. 48 м.
    Общий поток : 9322 Кбит/сек
    Дата кодирования : UTC 2017-09-06 22:15:06
    Программа кодирования : mkvmerge v4.0.0 ("The Stars were mine") сборка от Jun 6 2010 16:18:42
    Библиотека кодирования : libebml v1.0.0 + libmatroska v1.0.0

    Видео
    Идентификатор : 1
    Формат : AVC
    Формат/Информация : Advanced Video Codec
    Профиль формата : High@L4.1
    Параметр CABAC формата : Да
    Параметр ReFrames формата : 4 кадра
    Идентификатор кодека : V_MPEG4/ISO/AVC
    Продолжительность : 1 ч. 48 м.
    Битрейт : 8048 Кбит/сек
    Ширина : 1920 пикселей
    Высота : 1072 пикселя
    Соотношение сторон : 16:9
    Режим частоты кадров : Постоянный
    Частота кадров : 24,000 кадра/сек
    Цветовое пространство : YUV
    Субдискретизация насыщенности : 4:2:0
    Битовая глубина : 8 бит
    Тип развёртки : Прогрессивная
    Бит/(Пиксели*Кадры) : 0.163
    Размер потока : 5,93 Гбайт (84%)
    Библиотека кодирования : x264 core 114 r1913 5fd3dce
    Настройки программы : cabac=1 / ref=4 / deblock=1:0:0 / analyse=0x3:0x133 / me=umh / subme=8 / psy=1 / psy_rd=1.00:0.00 / mixed_ref=1 / me_range=16 / chroma_me=1 / trellis=1 / 8x8dct=1 / cqm=0 / deadzone=21,11 / fast_pskip=0 / chroma_qp_offset=-2 / threads=3 / sliced_threads=0 / nr=0 / decimate=1 / interlaced=0 / constrained_intra=0 / bframes=3 / b_pyramid=2 / b_adapt=1 / b_bias=0 / direct=1 / weightb=1 / open_gop=0 / weightp=2 / keyint=250 / keyint_min=23 / scenecut=40 / intra_refresh=0 / rc_lookahead=40 / rc=2pass / mbtree=1 / bitrate=8048 / ratetol=1.0 / qcomp=0.60 / qpmin=0 / qpmax=69 / qpstep=4 / cplxblur=20.0 / qblur=0.5 / ip_ratio=1.40 / aq=1:1.00
    Язык : English
    Default : Нет
    Forced : Нет

    Аудио #1
    Идентификатор : 2
    Формат : AC-3
    Формат/Информация : Audio Coding 3
    Расширение режима : CM (complete main)
    Параметр Endianness формата : Big
    Идентификатор кодека : A_AC3
    Продолжительность : 1 ч. 48 м.
    Вид битрейта : Постоянный
    Битрейт : 640 Кбит/сек
    Каналы : 6 каналов
    Расположение каналов : Front: L C R, Side: L R, LFE
    Частота : 48,0 КГц
    Битовая глубина : 16 бит
    Метод сжатия : С потерями
    Размер потока : 494 Мбайт (7%)
    Заголовок : VO DeMon
    Язык : Russian
    Default : Нет
    Forced : Нет

    Аудио #2
    Идентификатор : 3
    Формат : AC-3
    Формат/Информация : Audio Coding 3
    Расширение режима : CM (complete main)
    Параметр Endianness формата : Big
    Идентификатор кодека : A_AC3
    Продолжительность : 1 ч. 48 м.
    Вид битрейта : Постоянный
    Битрейт : 640 Кбит/сек
    Каналы : 6 каналов
    Расположение каналов : Front: L C R, Side: L R, LFE
    Частота : 48,0 КГц
    Битовая глубина : 16 бит
    Метод сжатия : С потерями
    Размер потока : 494 Мбайт (7%)
    Язык : English
    Default : Нет
    Forced : Нет

    Текст #1
    Идентификатор : 4
    Формат : UTF-8
    Идентификатор кодека : S_TEXT/UTF8
    Идентификатор кодека/Информация : UTF-8 Plain Text
    Язык : Russian
    Default : Нет
    Forced : Нет

    Текст #2
    Идентификатор : 5
    Формат : UTF-8
    Идентификатор кодека : S_TEXT/UTF8
    Идентификатор кодека/Информация : UTF-8 Plain Text
    Язык : English
    Default : Нет
    Forced : Нет
    Свернуть


    [img]http://s014.radikal.ru/i326/1709/e6/dced94703c6d.png[/img][img]http://s001.radikal.ru/i193/1709/9a/f2306ff36332.png[/img][img]http://s015.radikal.ru/i332/1709/f5/6ec28ee4d527.png[/img][img]http://s001.radikal.ru/i193/1709/88/844ed672ddcd.png[/img]
    [img]http://s019.radikal.ru/i606/1709/05/8b167f821816.png[/img][img]http://s019.radikal.ru/i634/1709/83/c42158de4af5.png[/img][img]http://s019.radikal.ru/i608/1709/77/017f7f3e4af0.png[/img][img]http://s019.radikal.ru/i620/1709/40/63460dcb7c61.png[/img]
    Похожие раздачи Искать похожие
    Инструкция по скачиванию
     1  Качаем uTorrent версии 2.0 и выше
     2  После установки, жмем выше под постером на ссылку Скачать [MediaGet] или Скачать .torrent
     3  Открываем скачанный файл через соответствующий клиент: MediaGet или uTorrent
     4  Ждем пока подключатся участники
     5  Качаем
    Комментарии о  Шум / Noise | BDRip 1080p 
    Ближайшее в кино
    Вверх