• Игры для PS4
  • Игры для PS3
  • Игры для XBOX360
  • Игры для PC
  • Игры для PS2
  • Игры для PSP
  • Для телефонов
  • Музыка
  • Книги / Журналы
  • Обои
  • Опрос
    Откуда Вы о нас узнали?
      0
    • От знакомых2,1,false,300,full
    • Из социальных сетей2,2,false,300,full
    • Из поисковых систем2,3,false,300,full
    • Другое2,4,false,300,full
    Статистика
    Всего онлайн -
    Гостей -
    Пользователей -
    Короли трекера
    
    Благодарности () Закрыть
    Информация о фильме
    Название: Трансформеры: Последний рыцарь
    Оригинальное название: Transformers: The Last Knight
    Год выхода: 2017
    Жанр: Фантастика, боевик, триллер, приключения
    Режиссер: Майкл Бэй
    В ролях: Марк Уолберг, Энтони Хопкинс, Джош Дюамель, Лора Хэддок, Сантьяго Кабрера, Изабела Монер, Джеррод Кармайкл, Стэнли Туччи, Лиам Гэрриган, Мартин МакКриди

    О фильме:
    Оптимус Прайм исчез. Люди ведут войну с Трансформерами. Ключ к нашему будущему погребен в тайнах прошлого, в скрытой истории Трансформеров на Земле… Миссия по спасению мира ложится на плечи разношерстной компании, состоящей из Кейда Йегера, Бамблби, английского лорда и профессора из Оксфорда. Пришла пора действовать! Жертвы станут героями. Герои станут злодеями. Выстоит только один мир: их или наш.



    Страна: США
    Студия: Di Bonaventura Pictures, Hasbro Inc., Huahua Film & Media Culture, Ian Bryce Productions, Paramount Pictures
    Продолжительность: 02:34:39
    Перевод: Дублированный | iTunes

    Файл
    Качество: BDRemux 1080p
    Видео: MPEG-4 AVC, 1920x1080, 27.6 Mbit/s, 23.976 fps
    Звук:
    Аудио #01: 48 kHz, AC3, 5.1, 384 Kbps | Дублированный | iTunes | RUS |[img]http://lostpix.com/img/2016-04/26/ecarul7mj2gcrjkf30af8u4tk.gif[/img]
    Аудио #02: 48 kHz, TrueHD, 7.1, 4298 Kbps | Оригинал | ENG |[img]http://lostpix.com/img/2016-09/30/0icucyo5gq0qmwlibabcgmhiw.gif[/img]
    Субтитры: Русские (forced, full), английские

    [img]http://lostpix.com/img/2017-09/19/7wqicbu7n5yspgd5168s9dj2s.png[/img][img]http://lostpix.com/img/2017-09/19/pg35doktwnvhj0b9srevl5qjn.png[/img][img]http://lostpix.com/img/2017-09/19/h1us92q4ti9is4mr34w0yfj4w.png[/img][img]http://lostpix.com/img/2017-09/19/9w41uy9kiria8ctfb2y5egx83.png[/img][img]http://lostpix.com/img/2017-09/19/xw97pu5bovcu7lbel9g6ehw4c.png[/img]

    MI
    General
    Unique ID                   : 201847290854466753373744669184293459867 (0x97DA5FC9471EF32E97866033B851D79B)
    Complete name               : F:VideoTransformers.The.Last.Knight.2017.D.BDREMUX.1080p.ExKinoRay.mkv
    Format                      : Matroska
    Format version              : Version 4 / Version 2
    File size                   : 35.0 GiB
    Duration                    : 2 h 34 min
    Overall bit rate mode       : Variable
    Overall bit rate            : 32.4 Mb/s
    Encoded date                : UTC 2017-09-19 07:48:37
    Writing application         : mkvmerge v15.0.0 ("Duel with the Devil") 64-bit
    Writing library             : libebml v1.3.5 + libmatroska v1.4.5

    Video
    ID                          : 1
    Format                      : AVC
    Format/Info                 : Advanced Video Codec
    Format profile              : High@L4.1
    Format settings, CABAC      : Yes
    Format settings, RefFrames  : 4 frames
    Codec ID                    : V_MPEG4/ISO/AVC
    Duration                    : 2 h 34 min
    Bit rate mode               : Variable
    Bit rate                    : 27.6 Mb/s
    Maximum bit rate            : 31.0 Mb/s
    Width                       : 1 920 pixels
    Height                      : 1 080 pixels
    Display aspect ratio        : 16:9
    Frame rate mode             : Constant
    Frame rate                  : 23.976 (24000/1001) FPS
    Color space                 : YUV
    Chroma subsampling          : 4:2:0
    Bit depth                   : 8 bits
    Scan type                   : Progressive
    Bits/(Pixel*Frame)          : 0.556
    Stream size                 : 29.8 GiB (85%)
    Language                    : English
    Default                     : Yes
    Forced                      : No

    Audio #1
    ID                          : 2
    Format                      : AC-3
    Format/Info                 : Audio Coding 3
    Format settings, Endianness : Big
    Codec ID                    : A_AC3
    Duration                    : 2 h 34 min
    Bit rate mode               : Constant
    Bit rate                    : 384 kb/s
    Channel(s)                  : 6 channels
    Channel positions           : Front: L C R, Side: L R, LFE
    Sampling rate               : 48.0 kHz
    Frame rate                  : 31.250 FPS (1536 SPF)
    Bit depth                   : 16 bits
    Compression mode            : Lossy
    Stream size                 : 425 MiB (1%)
    Title                       : iTunes
    Language                    : Russian
    Service kind                : Complete Main
    Default                     : Yes
    Forced                      : No

    Audio #2
    ID                          : 3
    Format                      : TrueHD
    Format profile              : TrueHD+Atmos / TrueHD
    Codec ID                    : A_TRUEHD
    Duration                    : 2 h 34 min
    Bit rate mode               : Variable
    Bit rate                    : 4 298 kb/s
    Maximum bit rate            : 6 528 kb/s
    Channel(s)                  : Object Based / 8 channels
    Channel positions           : Object Based / Front: L C R, Side: L R, Back: L R, LFE
    Sampling rate               :  / 48.0 kHz
    Frame rate                  : 1 200.000 FPS (40 SPF)
    Compression mode            : Lossless
    Stream size                 : 4.64 GiB (13%)
    Title                       : Original
    Language                    : English
    Default                     : No
    Forced                      : No

    Text #1
    ID                          : 4
    Format                      : UTF-8
    Codec ID                    : S_TEXT/UTF8
    Codec ID/Info               : UTF-8 Plain Text
    Duration                    : 2 h 33 min
    Bit rate                    : 1 b/s
    Count of elements           : 34
    Stream size                 : 1.29 KiB (0%)
    Title                       : Forced
    Language                    : Russian
    Default                     : Yes
    Forced                      : No

    Text #2
    ID                          : 5
    Format                      : UTF-8
    Codec ID                    : S_TEXT/UTF8
    Codec ID/Info               : UTF-8 Plain Text
    Duration                    : 2 h 33 min
    Bit rate                    : 96 b/s
    Count of elements           : 2321
    Stream size                 : 109 KiB (0%)
    Title                       : Full
    Language                    : Russian
    Default                     : No
    Forced                      : No

    Text #3
    ID                          : 6
    Format                      : UTF-8
    Codec ID                    : S_TEXT/UTF8
    Codec ID/Info               : UTF-8 Plain Text
    Duration                    : 2 h 25 min
    Bit rate                    : 73 b/s
    Count of elements           : 2617
    Stream size                 : 78.3 KiB (0%)
    Title                       : SDH
    Language                    : English
    Default                     : No
    Forced                      : No

    Menu
    00:00:00.000                : en:00:00:00.000
    00:06:36.104                : en:00:06:36.104
    00:14:03.468                : en:00:14:03.468
    00:21:45.763                : en:00:21:45.763
    00:27:53.255                : en:00:27:53.255
    00:33:53.907                : en:00:33:53.907
    00:40:08.906                : en:00:40:08.906
    00:46:58.941                : en:00:46:58.941
    00:53:25.786                : en:00:53:25.786
    01:02:02.928                : en:01:02:02.928
    01:08:47.081                : en:01:08:47.081
    01:14:37.223                : en:01:14:37.223
    01:20:10.180                : en:01:20:10.180
    01:29:13.390                : en:01:29:13.390
    01:37:59.499                : en:01:37:59.499
    01:44:57.583                : en:01:44:57.583
    01:51:15.502                : en:01:51:15.502
    01:57:59.447                : en:01:57:59.447
    02:06:09.729                : en:02:06:09.729
    02:10:54.096                : en:02:10:54.096
    02:16:01.153                : en:02:16:01.153
    02:21:42.619                : en:02:21:42.619
    02:25:17.292                : en:02:25:17.292Свернуть


    Примечание
    В связи с наличием в БД версии некоторых сцен, которых не имеется в версии от iTunes, в отрезке времени с ~29-ой по ~49-ую минуту фильма, присутствуют вставки, с оригинальной, английской звуковой дорожки. Где буквально несколько фраз, без перевода. Они переведены форсированными субтитрами. Русские субтитры так же переделаны, как полные, так и форсированные.Свернуть


    Подпишись на меня, кликни по картинке > : [img]http://s020.radikal.ru/i712/1704/75/8013a071a5c1.gif[/img]

    [img]http://lostpix.com/img/2017-03/22/pa3kns75lpl0e564ik1il8ow9.gif[/img]
    Похожие раздачи Искать похожие
    Инструкция по скачиванию
     1  Качаем uTorrent версии 2.0 и выше
     2  После установки, жмем выше под постером на ссылку Скачать [MediaGet] или Скачать .torrent
     3  Открываем скачанный файл через соответствующий клиент: MediaGet или uTorrent
     4  Ждем пока подключатся участники
     5  Качаем
    Комментарии о  Трансформеры: Последний рыцарь / Transformers: The Last Knight | BDRemux 1080p 
    Ближайшее в кино
    Вверх