• Игры для PS4
  • Игры для PS3
  • Игры для XBOX360
  • Игры для PC
  • Игры для PS2
  • Игры для PSP
  • Для телефонов
  • Музыка
  • Книги / Журналы
  • Обои
  • Опрос
    Откуда Вы о нас узнали?
      0
    • От знакомых2,1,false,300,full
    • Из социальных сетей2,2,false,300,full
    • Из поисковых систем2,3,false,300,full
    • Другое2,4,false,300,full
    Статистика
    Всего онлайн -
    Гостей -
    Пользователей -
    Короли трекера
    
    Благодарности () Закрыть
    Информация о фильме
    Название: Несколько женщин
    Оригинальное название: Certain Women
    Страна: США
    Студия: Film Science, Stage 6 Films
    Жанр:  драма
    Год выпуска: 2016
    Продолжительность: 01:47:09

    Перевод: Профессиональный (многоголосый закадровый) iTunes
    Субтитры: Rus, Eng
    Оригинальная аудиодорожка: английский

    Режиссер: Келли Райхардт / Kelly Reichardt

    В ролях: Кристен Стюарт, Мишель Уильямс, Лора Дерн, Джаред Харрис, Рене Обержонуа, Джеймс ЛеГрос, Джон Гец, Эшли Эткинсон, Джеймс Джордан, Эделен МакУильямс

    Описание: Картина раскрывает три личные истории, произошедшие в штате Монтана. В первой – юрист из Ливингстона Лора Уэллс (Лора Дерн) не может избавиться от назойливого клиента Фуллера (Джаред Харрис), ставшего инвалидом из-за производственной травмы, но по формальной причине лишенного права на денежную компенсацию. Мужчина устраивает отчаянно-нелепую акцию протеста (берет в заложники охранника офисного центра), удостаиваясь лишь быстрого ареста. Во второй – мы встречаем супружескую пару, Райана (Джеймс Легрос) и Джину (Мишель Уильямс): жена намеревается выкупить у местного старожилы Альберта (Рене Обержено) груду камней, лежащих около его дома еще с 60-х годов – они должны пригодиться дельной хозяйке в строительстве коттеджа. Рефлексии вокруг приобретения песчаника и дискоммуникации между родственниками посвящен весь эпизод. В третьем повествовательном блоке речь идет о девушке-конюхе Джейми (Лили Глэдстоун), которая от скуки посещает лекции о системе образования, где знакомится с молодой преподавательницей Бэт (Кристен Стюарт), приезжающей на занятия издалека, откровенно недолюбливающей эти вояжи и мечтающей стать адвокатом. Каждый вечер в закусочной героини ведут необязательные, куцые диалоги. Через неделю Бэт не появляется на уроке, заставляя случайную знакомую отправиться в город для новой встречи со сбежавшим, но уже любимым учителем.

    [img]http://i64.fastpic.ru/big/2014/0916/7d/9b3cf021f20f4cf5f91f0b627fcbe57d.gif[/img][img]https://rating.kinopoisk.ru/893610.gif[/img]

    Тип релиза: BDRip 720p
    Контейнер: MKV

    Видео: MPEG-4 AVC, 10.8 Mбит/с, 1280x694, 23,976 fps
    Аудио: Rus, AC3, 384 kb/s (6 ch), 48 kHz
    Аудио 2: Eng, AC3, 640 kb/s (6 ch), 48 kHz
    Формат субтитров: softsub (SRT)
    MediaInfo

    x264 [info]: frame I:765   Avg QP:15.28  size:151278
    x264 [info]: frame P:26371 Avg QP:16.97  size: 79543
    x264 [info]: frame B:127449 Avg QP:18.88  size: 50910

    Format                         : Matroska
    Format version                 : Version 4 / Version 2
    File size                      : 8.87 GiB
    Duration                       : 1 h 47 min
    Overall bit rate               : 11.8 Mb/s
    Movie name                     : Несколько женщин. (Tonik)
    Encoded date                   : UTC 2017-09-19 09:17:14
    Writing application            : mkvmerge v7.1.0 ("Good Love") 64bit built on Jul 27 2014 13:06:55
    Writing library                : libebml v1.3.0 + libmatroska v1.4.1

    Video
    ID                             : 1
    Format                         : AVC
    Format/Info                    : Advanced Video Codec
    Format profile                 : High@L4.1
    Format settings, CABAC         : Yes
    Format settings, ReFrames      : 9 frames
    Codec ID                       : V_MPEG4/ISO/AVC
    Duration                       : 1 h 47 min
    Bit rate                       : 10.8 Mb/s
    Width                          : 1 280 pixels
    Height                         : 694 pixels
    Display aspect ratio           : 1.85:1
    Frame rate mode                : Constant
    Frame rate                     : 23.976 (24000/1001) FPS
    Color space                    : YUV
    Chroma subsampling             : 4:2:0
    Bit depth                      : 8 bits
    Scan type                      : Progressive
    Bits/(Pixel*Frame)             : 0.507
    Stream size                    : 8.10 GiB (91%)
    Writing library                : x264 core 148 r2705.16 d50a22e VietHD_Custom_64
    Encoding settings              : cabac=1 / ref=9 / deblock=1:-3:-3 / analyse=0x3:0x133 / me=umh / subme=10 / psy=1 / fade_compensate=0.00 / psy_rd=1.00:0.00 / mixed_ref=1 / me_range=24 / chroma_me=1 / trellis=2 / 8x8dct=1 / cqm=0 / deadzone=21,11 / fast_pskip=0 / chroma_qp_offset=-2 / threads=22 / lookahead_threads=3 / sliced_threads=0 / nr=0 / decimate=0 / interlaced=0 / bluray_compat=0 / constrained_intra=0 / fgo=0 / bframes=8 / b_pyramid=2 / b_adapt=2 / b_bias=0 / direct=3 / weightb=1 / open_gop=0 / weightp=2 / keyint=250 / keyint_min=23 / scenecut=40 / intra_refresh=0 / rc_lookahead=60 / rc=2pass / mbtree=0 / bitrate=10800 / ratetol=1.0 / qcomp=0.60 / qpmin=0:0:0 / qpmax=69:69:69 / qpstep=4 / cplxblur=20.0 / qblur=0.5 / vbv_maxrate=62500 / vbv_bufsize=78125 / nal_hrd=none / filler=0 / ip_ratio=1.30 / pb_ratio=1.20 / aq=3:0.70 / aq-sensitivity=10.00 / aq-factor=1.00:1.00:1.00 / aq2=0 / aq3=0
    Language                       : English
    Default                        : Yes
    Forced                         : No
    Color range                    : Limited
    Matrix coefficients            : BT.709

    Audio #1
    ID                             : 2
    Format                         : AC-3
    Format/Info                    : Audio Coding 3
    Format settings, Endianness    : Big
    Codec ID                       : A_AC3
    Duration                       : 1 h 47 min
    Bit rate mode                  : Constant
    Bit rate                       : 384 kb/s
    Channel(s)                     : 6 channels
    Channel positions              : Front: L C R, Side: L R, LFE
    Sampling rate                  : 48.0 kHz
    Frame rate                     : 31.250 FPS (1536 spf)
    Bit depth                      : 16 bits
    Compression mode               : Lossy
    Stream size                    : 295 MiB (3%)
    Title                          : iTunes
    Language                       : Russian
    Service kind                   : Complete Main
    Default                        : Yes
    Forced                         : No

    Audio #2
    ID                             : 3
    Format                         : AC-3
    Format/Info                    : Audio Coding 3
    Format settings, Endianness    : Big
    Codec ID                       : A_AC3
    Duration                       : 1 h 47 min
    Bit rate mode                  : Constant
    Bit rate                       : 640 kb/s
    Channel(s)                     : 6 channels
    Channel positions              : Front: L C R, Side: L R, LFE
    Sampling rate                  : 48.0 kHz
    Frame rate                     : 31.250 FPS (1536 spf)
    Bit depth                      : 16 bits
    Compression mode               : Lossy
    Stream size                    : 492 MiB (5%)
    Language                       : English
    Service kind                   : Complete Main
    Default                        : No
    Forced                         : No

    Text #1
    ID                             : 4
    Format                         : UTF-8
    Codec ID                       : S_TEXT/UTF8
    Codec ID/Info                  : UTF-8 Plain Text
    Duration                       : 1 h 42 min
    Bit rate                       : 50 b/s
    Count of elements              : 771
    Stream size                    : 38.1 KiB (0%)
    Language                       : Russian
    Default                        : No
    Forced                         : No

    Text #2
    ID                             : 5
    Format                         : UTF-8
    Codec ID                       : S_TEXT/UTF8
    Codec ID/Info                  : UTF-8 Plain Text
    Duration                       : 1 h 40 min
    Bit rate                       : 32 b/s
    Count of elements              : 724
    Stream size                    : 24.3 KiB (0%)
    Language                       : English
    Default                        : No
    Forced                         : No

    Text #3
    ID                             : 6
    Format                         : UTF-8
    Codec ID                       : S_TEXT/UTF8
    Codec ID/Info                  : UTF-8 Plain Text
    Duration                       : 1 h 41 min
    Bit rate                       : 38 b/s
    Count of elements              : 889
    Stream size                    : 28.4 KiB (0%)
    Title                          : SDH
    Language                       : English
    Default                        : No
    Forced                         : No

    Menu
    00:00:00.000                   : en:00:00:00.000
    00:02:54.800                   : en:00:02:54.800
    00:04:58.173                   : en:00:04:58.173
    00:08:26.256                   : en:00:08:26.256
    00:15:46.654                   : en:00:15:46.654
    00:31:49.032                   : en:00:31:49.032
    00:40:39.479                   : en:00:40:39.479
    00:54:59.880                   : en:00:54:59.880
    01:05:34.347                   : en:01:05:34.347
    01:20:12.516                   : en:01:20:12.516
    01:35:09.037                   : en:01:35:09.037
    01:39:47.148                   : en:01:39:47.148
    01:41:50.313                   : en:01:41:50.313
    01:43:22.530                   : en:01:43:22.530

    Свернуть


    Скриншоты

    [screen]http://i4.imageban.ru/out/2017/09/19/23cc18b11e8eb9ea9f48fbc105a4fc45.png[/screen][screen]http://i1.imageban.ru/out/2017/09/19/1b95050672282ea28dac519c534fbf74.png[/screen][screen]http://i1.imageban.ru/out/2017/09/19/358626ae3c6b7b7f04a1aac88bc3f7a8.png[/screen][screen]http://i3.imageban.ru/out/2017/09/19/f7cc2b3282311774d337facadc493d16.png[/screen]
    Свернуть
    Похожие раздачи Искать похожие
    Инструкция по скачиванию
     1  Качаем uTorrent версии 2.0 и выше
     2  После установки, жмем выше под постером на ссылку Скачать [MediaGet] или Скачать .torrent
     3  Открываем скачанный файл через соответствующий клиент: MediaGet или uTorrent
     4  Ждем пока подключатся участники
     5  Качаем
    Комментарии о  Несколько женщин / Certain Women | BDRip 720p 
    Ближайшее в кино
    Вверх