• Игры для PS4
  • Игры для PS3
  • Игры для XBOX360
  • Игры для PC
  • Игры для PS2
  • Игры для PSP
  • Для телефонов
  • Музыка
  • Книги / Журналы
  • Обои
  • Опрос
    Удобен ли сайт в использовании?
      0
    • Очень удобен, все понятно1,1,false,300,full
    • Удобен1,2,false,300,full
    • Средне1,3,false,300,full
    • Неудобен, трудно ориентироваться1,4,false,300,full
    • Совсем неудобен1,5,false,300,full
    Статистика
    Всего онлайн -
    Гостей -
    Пользователей -
    Короли трекера
    
    Благодарности () Закрыть
    Авария / Collision

    Страна: Великобритания [img]http://st.kp.yandex.net/images/flags/flag-11.gif[/img]
    Производство: Greenlit Productions Ltd.
    Год выпуска: 2009
    Сезон: 1
    Жанр:  драма, детектив
    Продолжительность: 5х ~00:46:00

    Режиссер: Марк Эванс
    Авторы сценария: Энтони Хоровиц, Майкл А. Уокер

    В ролях: Дуглас Хеншэлл, Дин Леннокс Келли, Люси Гриффитс, Филип Дэвис, Сильвия Симс, Пол МакГанн, Мэтт Райан, Кейт Эшфилд, Джо Вудкок

    Описание: Произошла крупная автомобильная авария, повлекшая многочисленные жертвы. Пострадали многие известные люди. Судьбы героев причудливо переплетаются, пока они не оказываются в том месте, и в то время, когда и происходит ужасная авария. Простое расследование причин аварии приводит к поразительным открытиям — за каждой судьбой скрыта какая-то тайна, будь то подкуп, растрата, хищение документов и даже убийство. Нам предстоит узнать историю каждого из них, чтобы вместе с авторами сериала распутать этот сложный клубок...



    Перевод: Профессиональный (многоголосый, закадровый) | Eurochannel
    Субтитры: нет

    Качество: HDTVRip
    Формат: АVI
    Видео кодек: DivX
    Аудио кодек: МР3
    Видео: 720x400 (16:9), 25.000 fps, DivX 5 ~1 420 kbps avg
    Аудио №1: 48.0 kHz, MPEG Layer 3, 2 ch, ~192 kbps | RUS
    Аудио №2: 48.0 kHz, MPEG Layer 3, 2 ch, ~192 kbps | ENG

    Дата премьеры (мир): 11 октября 2009

    [img]http://s010.radikal.ru/i313/1609/5b/ca3b75e82c69.gif[/img][img]http://s018.radikal.ru/i522/1609/79/3d079e982089.gif[/img]

    Media Info
    General
    Полное имя : Collision.S01E01.rus.eng.avi
    Формат : AVI
    Формат/Информация : Audio Video Interleave
    Размер файла : 602 Мбайт
    Продолжительность : 46 м.
    Общий поток : 1819 Кбит/сек
    Название фильма : Авария. Сезон 1 / Collision. Season 1 (2019)
    Программа кодирования : VirtualDubMod 1.5.10.2 (build 2540/release)
    Библиотека кодирования : VirtualDubMod build 2540/release
    Авторское право : miha2154

    Видео
    Идентификатор : 0
    Формат : MPEG-4 Visual
    Профиль формата : Advanced Simple@L5
    Параметр BVOP формата : 1
    Параметр QPel формата : Нет
    Параметр GMC формата : Без точки перехода
    Параметр матрицы формата : Выборочная
    Идентификатор кодека : DX50
    Идентификатор кодека/Подсказка : DivX 5
    Продолжительность : 46 м.
    Битрейт : 1420 Кбит/сек
    Ширина : 720 пикселей
    Высота : 400 пикселей
    Соотношение сторон : 16:9
    Частота кадров : 25,000 кадров/сек
    Цветовое пространство : YUV
    Субдискретизация насыщенности : 4:2:0
    Битовая глубина : 8 бит
    Тип развёртки : Прогрессивная
    Метод сжатия : С потерями
    Бит/(Пиксели*Кадры) : 0.197
    Размер потока : 470 Мбайт (78%)
    Библиотека кодирования : XviD 65

    Аудио #1
    Идентификатор : 1
    Формат : AC-3
    Формат/Информация : Audio Coding 3
    Расширение режима : CM (complete main)
    Параметр Endianness формата : Big
    Идентификатор кодека : 2000
    Продолжительность : 46 м.
    Вид битрейта : Постоянный
    Битрейт : 192 Кбит/сек
    Каналы : 2 канала
    Расположение каналов : Front: L R
    Частота : 48,0 КГц
    Частота кадров : 31,250 кадров/сек (1536 spf)
    Метод сжатия : С потерями
    Размер потока : 63,6 Мбайт (11%)
    Выравнивание : Разделение по промежуткам
    Продолжительность промежутка : 40 мс. (1,00 видеокадр)
    Время предзагрузки промежутка : 500 мс.
    Заголовок : Профессиональный (многоголосый закадровый) Eurochannel

    Аудио #2
    Идентификатор : 2
    Формат : AC-3
    Формат/Информация : Audio Coding 3
    Расширение режима : CM (complete main)
    Параметр Endianness формата : Big
    Идентификатор кодека : 2000
    Продолжительность : 46 м.
    Вид битрейта : Постоянный
    Битрейт : 192 Кбит/сек
    Каналы : 2 канала
    Расположение каналов : Front: L R
    Частота : 48,0 КГц
    Частота кадров : 31,250 кадров/сек (1536 spf)
    Метод сжатия : С потерями
    Размер потока : 63,6 Мбайт (11%)
    Выравнивание : Разделение по промежуткам
    Продолжительность промежутка : 40 мс. (1,00 видеокадр)
    Время предзагрузки промежутка : 500 мс.
    Заголовок : АнглийскийСвернуть


    Скриншоты
    [screen]http://i89.fastpic.ru/big/2017/0915/13/8bcc61425c8c34170df78d3ea8ce2713.png[/screen][screen]http://i94.fastpic.ru/big/2017/0915/39/94c8733a0fc0fbe9b62a3b17b331e139.png[/screen][screen]http://i91.fastpic.ru/big/2017/0915/b3/dd5aad32917bae458789d497fa37f3b3.png[/screen]Свернуть
    Инструкция по скачиванию
     1  Качаем uTorrent версии 2.0 и выше
     2  После установки, жмем выше под постером на ссылку Скачать [MediaGet] или Скачать .torrent
     3  Открываем скачанный файл через соответствующий клиент: MediaGet или uTorrent
     4  Ждем пока подключатся участники
     5  Качаем
    Комментарии о  Авария / Collision [Сезон 01] | HDTVRip 
    Ближайшее в кино
    Вверх