• Игры для PS4
  • Игры для PS3
  • Игры для XBOX360
  • Игры для PC
  • Игры для PS2
  • Игры для PSP
  • Для телефонов
  • Музыка
  • Книги/Журналы
  • Обои
  •  
    Опрос
    Удобен ли сайт в использовании?
      0
    • Очень удобен, все понятно1,1,false,300,full
    • Удобен1,2,false,300,full
    • Средне1,3,false,300,full
    • Неудобен, трудно ориентироваться1,4,false,300,full
    • Совсем неудобен1,5,false,300,full
    Статистика
    Загрузка...
    Антропоид / Anthropoid | BDRip 720p
    Статус  Проверено
    В закладки
    Модератор: Max

    Антропоид / Anthropoid | BDRip 720p [Фильмы 2016] скачать торрентом/torrent бесплатно

    Год выхода
    Язык
    Закачал
    Max | 19 сентября 2017 в 14ч 56м 17с
    Раздел
    Отзывов
    0
    Раздают: 5 Качают: 0 Скачали: 9 Размер: 5.61 GB
    Инфо о раздаче | Благодарности |
    0/5
    0
    0 5 0
    Поддержи нас — расскажи друзьям!
    Orbitum
    Новый интернет-браузер Быстрее загружает сайты Экономит интернет—трафик Меняет оформление страницы ВК Блокирует всю рекламу на сайтах Загружает торренты как

    µTorrent

    клиент
    Объеденяет все твои чаты из соц. сетей в один Проигрывает твою музыку не заходя во ВКонтакте
    Скачать и многое другое... Подробности на сайте производителя
    Антропоид / Anthropoid

    Страна: Чехия [img]http://st.kp.yandex.net/images/flags/flag-34.gif[/img] Великобритания [img]http://st.kp.yandex.net/images/flags/flag-11.gif[/img] Франция [img]http://st.kp.yandex.net/images/flags/flag-8.gif[/img]
    Производство: Lucky Man Films, Liddell Entertainment, 22h22
    Год выпуска: 2016
    Жанр:  триллер, военный, биография, история
    Продолжительность: 02:00:52

    Режиссер: Шон Эллис
    Авторы сценария: Шон Эллис, Энтони Фревин

    В ролях: Джейми Дорнан, Киллиан Мёрфи, Шарлотта Ле Бон, Анна Гейслерова, Гарри Ллойд, Тоби Джонс, Алёна Михулова, Билл Милнер

    Описание: Основанный на реальной истории операции Антропоид, целью которой было устранение генерала СС Рейнхарда Гейдриха. Гейдрих занимал третье место после Гитлера и Гиммлера в фашистской иерархии. Его устранение, посредством этой сверхсекретной операции, нанесло бы невосполнимую потерю силам нацистов и внесло огромный вклад в общую победу...



    Перевод: Профессиональный (полное дублирование) | iTunes
    Субтитры: английские (full)

    Качество: BDRip 720р
    Формат: M4V
    Видео кодек: AVC
    Аудио кодек: AAC | АС3
    Видео №1: 1280x544 (2.35:1), 23.976 fps, MPEG-4 AVC ~5 300 kbps avg
    Видео №2: 640x272 (2.40:1), 0.003 fps, JPEG ~884 bps avg

    Аудио №1: 48.0 kHz, Advanced Audio Codec LC, 2/0 (L,R) ch, ~156 kbps | RUS / Stereo
    Аудио №2: 48.0 kHz, Advanced Audio Codec LC, 2/0 (L,R) ch, ~156 kbps | ENG / Stereo
    Аудио №3: 48.0 kHz, AC3 Dolby Digital, 3/2 (L,C,R,l,r) + LFE ch, ~384 kbps | RUS
    Аудио №4: 48.0 kHz, AC3 Dolby Digital, 3/2 (L,C,R,l,r) + LFE ch, ~640 kbps | ENG
    Формат субтитров: Timed Text

    Дата премьеры (мир): 1 июля 2016
    Дата премьеры (РФ): 22 июня 2017, «АКМ»

    [img]http://s020.radikal.ru/i720/1609/54/5ae4dee54ff4.gif[/img]

    Media Info
    General
    Complete name                            : Anthropoid (720p HD).m4v
    Format                                   : MPEG-4
    Codec ID                                 : M4V  (M4V /M4A /mp42/isom)
    File size                                : 5.61 GiB
    Duration                                 : 2h 0mn
    Overall bit rate mode                    : Variable
    Overall bit rate                         : 6 641 Kbps

    Video #1
    ID                                       : 1
    Format                                   : AVC
    Format/Info                              : Advanced Video Codec
    Format profile                           : High@L3.1
    Format settings, CABAC                   : No
    Format settings, ReFrames                : 3 frames
    Codec ID                                 : avc1
    Codec ID/Info                            : Advanced Video Coding
    Duration                                 : 2h 0mn
    Source duration                          : 2h 0mn
    Bit rate                                 : 5 300 Kbps
    Width                                    : 1 280 pixels
    Height                                   : 544 pixels
    Display aspect ratio                     : 2.35:1
    Frame rate mode                          : Variable
    Frame rate                               : 23.976 (24000/1001) fps
    Minimum frame rate                       : 23.974 fps
    Maximum frame rate                       : 23.981 fps
    Color space                              : YUV
    Chroma subsampling                       : 4:2:0
    Bit depth                                : 8 bits
    Scan type                                : Progressive
    Bits/(Pixel*Frame)                       : 0.317
    Stream size                              : 4.47 GiB (80%)
    Source stream size                       : 4.47 GiB (80%)
    Title                                    : Main Program
    Writing library                          : x264 core 148 r2708 86b7198
    Encoding settings                        : cabac=0 / ref=3 / deblock=1:-3:-3 / analyse=0x3:0x113 / me=umh / subme=9 / psy=1 / psy_rd=1.00:0.15 / mixed_ref=1 / me_range=32 / chroma_me=1 / trellis=0 / 8x8dct=1 / cqm=0 / deadzone=21,11 / fast_pskip=0 / chroma_qp_offset=-2 / threads=17 / lookahead_threads=1 / sliced_threads=0 / nr=0 / decimate=0 / interlaced=0 / bluray_compat=0 / constrained_intra=0 / bframes=3 / b_pyramid=0 / b_adapt=2 / b_bias=0 / direct=1 / weightb=0 / open_gop=0 / weightp=0 / keyint=240 / keyint_min=24 / scenecut=40 / intra_refresh=0 / rc_lookahead=40 / rc=2pass / mbtree=1 / bitrate=5300 / ratetol=1.0 / qcomp=0.65 / qpmin=0 / qpmax=69 / qpstep=4 / cplxblur=20.0 / qblur=0.5 / vbv_maxrate=9500 / vbv_bufsize=9500 / nal_hrd=none / filler=0 / ip_ratio=1.40 / aq=1:1.10
    Language                                 : English
    Encoded date                             : UTC 2017-07-24 11:14:23
    Tagged date                              : UTC 2017-07-24 11:14:37
    Color range                              : Limited
    Color primaries                          : BT.709
    Transfer characteristics                 : BT.709
    Matrix coefficients                      : BT.709
    Menus                                    : 7,8

    Video #2
    ID                                       : 8
    Format                                   : JPEG
    Codec ID                                 : jpeg
    Duration                                 : 2h 0mn
    Bit rate mode                            : Variable
    Bit rate                                 : 884 bps
    Width                                    : 640 pixels
    Height                                   : 272 pixels
    Display aspect ratio                     : 2.35:1
    Frame rate mode                          : Variable
    Frame rate                               : 0.003 fps
    Minimum frame rate                       : 0.002 fps
    Maximum frame rate                       : 0.004 fps
    Color space                              : YUV
    Chroma subsampling                       : 4:2:0
    Bit depth                                : 8 bits
    Compression mode                         : Lossy
    Bits/(Pixel*Frame)                       : 1.693
    Stream size                              : 719 KiB (0%)
    Title                                    : Chapter Images
    Language                                 : English
    Default                                  : No
    Encoded date                             : UTC 2017-07-24 11:15:32
    Tagged date                              : UTC 2017-07-24 11:15:33
    Menu For                                 : 1

    Audio #1
    ID                                       : 2
    Format                                   : AAC
    Format/Info                              : Advanced Audio Codec
    Format profile                           : LC
    Codec ID                                 : 40
    Duration                                 : 2h 0mn
    Bit rate mode                            : Variable
    Bit rate                                 : 156 Kbps
    Maximum bit rate                         : 242 Kbps
    Channel(s)                               : 2 channels
    Channel positions                        : Front: L R
    Sampling rate                            : 48.0 KHz
    Frame rate                               : 46.875 fps (1024 SPF)
    Compression mode                         : Lossy
    Stream size                              : 135 MiB (2%)
    Title                                    : Russian Stereo
    Language                                 : Russian
    Default                                  : Yes
    Alternate group                          : 1
    Encoded date                             : UTC 2017-07-24 11:14:24
    Tagged date                              : UTC 2017-07-24 11:15:28
    Fallback From                            : 4

    Audio #2
    ID                                       : 3
    Format                                   : AAC
    Format/Info                              : Advanced Audio Codec
    Format profile                           : LC
    Codec ID                                 : 40
    Duration                                 : 2h 0mn
    Bit rate mode                            : Variable
    Bit rate                                 : 156 Kbps
    Maximum bit rate                         : 261 Kbps
    Channel(s)                               : 2 channels
    Channel positions                        : Front: L R
    Sampling rate                            : 48.0 KHz
    Frame rate                               : 46.875 fps (1024 SPF)
    Compression mode                         : Lossy
    Stream size                              : 135 MiB (2%)
    Title                                    : English Stereo
    Language                                 : English
    Default                                  : No
    Alternate group                          : 1
    Encoded date                             : UTC 2017-07-24 11:14:24
    Tagged date                              : UTC 2017-07-24 11:15:28
    Fallback From                            : 5

    Audio #3
    ID                                       : 4
    Format                                   : AC-3
    Format/Info                              : Audio Coding 3
    Format settings, Endianness              : Big
    Codec ID                                 : ac-3
    Duration                                 : 2h 0mn
    Bit rate mode                            : Constant
    Bit rate                                 : 384 Kbps
    Channel(s)                               : 6 channels
    Channel positions                        : Front: L C R, Side: L R, LFE
    Sampling rate                            : 48.0 KHz
    Frame rate                               : 31.250 fps (1536 SPF)
    Bit depth                                : 16 bits
    Compression mode                         : Lossy
    Stream size                              : 332 MiB (6%)
    Title                                    : Russian DD 5.1
    Language                                 : Russian
    Service kind                             : Complete Main
    Default                                  : Inherited From: 2
    Alternate group                          : 1
    Encoded date                             : UTC 2017-07-24 11:14:24
    Tagged date                              : UTC 2017-07-24 11:15:28
    Fallback To                              : 2

    Audio #4
    ID                                       : 5
    Format                                   : AC-3
    Format/Info                              : Audio Coding 3
    Format settings, Endianness              : Big
    Codec ID                                 : ac-3
    Duration                                 : 2h 0mn
    Bit rate mode                            : Constant
    Bit rate                                 : 640 Kbps
    Channel(s)                               : 6 channels
    Channel positions                        : Front: L C R, Side: L R, LFE
    Sampling rate                            : 48.0 KHz
    Frame rate                               : 31.250 fps (1536 SPF)
    Bit depth                                : 16 bits
    Compression mode                         : Lossy
    Stream size                              : 553 MiB (10%)
    Title                                    : English DD 5.1
    Language                                 : English
    Service kind                             : Complete Main
    Default                                  : No
    Alternate group                          : 1
    Encoded date                             : UTC 2017-07-24 11:14:24
    Tagged date                              : UTC 2017-07-24 11:15:28
    Fallback To                              : 3

    Text
    ID                                       : 6
    Format                                   : Timed Text
    Muxing mode                              : sbtl
    Codec ID                                 : tx3g
    Duration                                 : 1h 48mn
    Bit rate mode                            : Variable
    Bit rate                                 : 39 bps
    Stream size                              : 30.8 KiB (0%)
    Title                                    : English full
    Language                                 : English
    Default                                  : Yes
    Forced                                   : No
    Alternate group                          : 2
    Encoded date                             : UTC 2017-07-24 11:14:24
    Tagged date                              : UTC 2017-07-24 11:15:22

    Menu #1
    00:00:00.000                             : Chapter 1
    00:08:32.053                             : Chapter 2
    00:12:57.860                             : Chapter 3
    00:18:48.294                             : Chapter 4
    00:24:35.599                             : Chapter 5
    00:28:54.107                             : Chapter 6
    00:34:02.207                             : Chapter 7
    00:39:41.754                             : Chapter 8
    00:48:58.227                             : Chapter 9
    00:56:04.987                             : Chapter 10
    00:59:55.842                             : Chapter 11
    01:06:37.535                             : Chapter 12
    01:12:14.997                             : Chapter 13
    01:17:09.041                             : Chapter 14
    01:23:09.693                             : Chapter 15
    01:28:13.121                             : Chapter 16
    01:32:06.396                             : Chapter 17
    01:39:01.769                             : Chapter 18
    01:44:38.731                             : Chapter 19
    01:54:37.829                             : Chapter 20

    Menu #2
    ID                                       : 7
    Codec ID                                 : text
    Duration                                 : 2h 0mn
    Language                                 : English
    Encoded date                             : UTC 2017-07-24 11:15:28
    Tagged date                              : UTC 2017-07-24 11:15:28
    Menu For                                 : 1
    00:00:00.000                             : Chapter 1
    00:08:32.053                             : Chapter 2
    00:12:57.860                             : Chapter 3
    00:18:48.294                             : Chapter 4
    00:24:35.599                             : Chapter 5
    00:28:54.107                             : Chapter 6
    00:34:02.207                             : Chapter 7
    00:39:41.754                             : Chapter 8
    00:48:58.227                             : Chapter 9
    00:56:04.987                             : Chapter 10
    00:59:55.842                             : Chapter 11
    01:06:37.535                             : Chapter 12
    01:12:14.997                             : Chapter 13
    01:17:09.041                             : Chapter 14
    01:23:09.693                             : Chapter 15
    01:28:13.121                             : Chapter 16
    01:32:06.396                             : Chapter 17
    01:39:01.769                             : Chapter 18
    01:44:38.731                             : Chapter 19
    01:54:37.829                             : Chapter 20
    Bit rate mode                            : VBR


    Скриншоты
    [img]http://img10.lostpic.net/2017/09/19/802a38b4ac626b51d14a5a14ba7af231.png[/img][img]http://img10.lostpic.net/2017/09/19/f269af6fdc597859ca437df67622516a.png[/img][img]http://img10.lostpic.net/2017/09/19/9a9ae2bd557e9ecab07a3a281bed01f9.png[/img]


    Дополнительная информация: релиз подготовлен для просмотра на Apple TV, iPad, iPhone, iPod Touch.
    Для просмотра данного релиза на компьютере с ОС Windows рекомендуется использовать VLC media player
    Еще похожие »

    Как скачать?
    1. Качаем UTorrent версии 2.0 и выше отсюда
    2. После установки, жмем на ссылку Скачать торрент.
    3. Открываем его через utorrent.
    4. Ждем пока подключатся участники.
    5. Качаем.


    Комментарии о Антропоид / Anthropoid | BDRip 720p
    Добавлять комментарии могут только зарегистрированные пользователи

    Зарегистрироваться или Войти


    Ближайшее в кино
    • Аллилуйя! дата выхода 13 ноября 2018Аллилуйя!
      Дата выхода: 13 ноября 2018
    • 1199695|Coldplay: A Head Full of Dreams|14 ноября 2018|200|300Coldplay: A Head Full of Dreams
      Дата выхода: 14 ноября 2018
    • 843479|Фантастические твари: Преступления Грин-де-Вальда|15 ноября 2018|200|300Фантастические твари: Преступления Грин-де-Вальда
      Дата выхода: 15 ноября 2018
    • 1070264|Догмэн|15 ноября 2018|200|300Догмэн
      Дата выхода: 15 ноября 2018
    • 1068448|Оцепеневшие от страха|15 ноября 2018|200|300Оцепеневшие от страха
      Дата выхода: 15 ноября 2018
    • 1065878|Холодная война|15 ноября 2018|200|300Холодная война
      Дата выхода: 15 ноября 2018
    • 933787|Не чужие|15 ноября 2018|200|300Не чужие
      Дата выхода: 15 ноября 2018
    • 1045040|Облепиховое лето|15 ноября 2018|200|300Облепиховое лето
      Дата выхода: 15 ноября 2018
    • 1085625|Соната|15 ноября 2018|200|300Соната
      Дата выхода: 15 ноября 2018
    • 1174349|Безумие Георга III|20 ноября 2018|200|300Безумие Георга III
      Дата выхода: 20 ноября 2018
    • 7226|Догвилль|22 ноября 2018|200|300Догвилль
      Дата выхода: 22 ноября 2018
    • 1009784|Апгрейд|22 ноября 2018|200|300Апгрейд
      Дата выхода: 22 ноября 2018
    • 988782|Ральф против интернета|22 ноября 2018|200|300Ральф против интернета
      Дата выхода: 22 ноября 2018
    • 965901|Вдовы|22 ноября 2018|200|300Вдовы
      Дата выхода: 22 ноября 2018
    • 1011685|Нация убийц|22 ноября 2018|200|300Нация убийц
      Дата выхода: 22 ноября 2018
    Вверх