• Игры для PS4
  • Игры для PS3
  • Игры для XBOX360
  • Игры для PC
  • Игры для PS2
  • Игры для PSP
  • Для телефонов
  • Музыка
  • Книги/Журналы
  • Обои
  •  
    Опрос
    Удобен ли сайт в использовании?
      0
    • Очень удобен, все понятно1,1,false,300,full
    • Удобен1,2,false,300,full
    • Средне1,3,false,300,full
    • Неудобен, трудно ориентироваться1,4,false,300,full
    • Совсем неудобен1,5,false,300,full
    Статистика
    Загрузка...
    Антропоид / Anthropoid | BDRip 1080p
    Статус  Проверено
    В закладки
    Модератор: Max

    Антропоид / Anthropoid | BDRip 1080p [Фильмы 2016] скачать торрентом/torrent бесплатно

    Год выхода
    Язык
    Закачал
    Аноним | 19 сентября 2017 в 14ч 56м 38с
    Раздел
    Отзывов
    0
    Раздают: 46 Качают: 0 Скачали: 952 Размер: 11.43 GB
    Инфо о раздаче | Благодарности |
    0/5
    0
    0 5 0
    Поддержи нас — расскажи друзьям!
    Orbitum
    Новый интернет-браузер Быстрее загружает сайты Экономит интернет—трафик Меняет оформление страницы ВК Блокирует всю рекламу на сайтах Загружает торренты как

    µTorrent

    клиент
    Объеденяет все твои чаты из соц. сетей в один Проигрывает твою музыку не заходя во ВКонтакте
    Скачать и многое другое... Подробности на сайте производителя
    Антропоид / Anthropoid

    Страна: Чехия [img]http://st.kp.yandex.net/images/flags/flag-34.gif[/img] Великобритания [img]http://st.kp.yandex.net/images/flags/flag-11.gif[/img] Франция [img]http://st.kp.yandex.net/images/flags/flag-8.gif[/img]
    Производство: Lucky Man Films, Liddell Entertainment, 22h22
    Год выпуска: 2016
    Жанр:  триллер, военный, биография, история
    Продолжительность: 02:00:52

    Режиссер: Шон Эллис
    Авторы сценария: Шон Эллис, Энтони Фревин

    В ролях: Джейми Дорнан, Киллиан Мёрфи, Шарлотта Ле Бон, Анна Гейслерова, Гарри Ллойд, Тоби Джонс, Алёна Михулова, Билл Милнер

    Описание: Основанный на реальной истории операции Антропоид, целью которой было устранение генерала СС Рейнхарда Гейдриха. Гейдрих занимал третье место после Гитлера и Гиммлера в фашистской иерархии. Его устранение, посредством этой сверхсекретной операции, нанесло бы невосполнимую потерю силам нацистов и внесло огромный вклад в общую победу...



    Перевод: Профессиональный (полное дублирование) | iTunes
    Субтитры: английские (full)

    Качество: BDRip 1080р
    Формат: M4V
    Видео кодек: AVC
    Аудио кодек: AAC | АС3
    Видео №1: 1920x800 (2.40:1), 23.976 fps, MPEG-4 AVC ~12.2 Mbps avg
    Видео №2: 640x266 (2.40:1), 0.003 fps, JPEG ~878 bps avg

    Аудио №1: 48.0 kHz, Advanced Audio Codec LC, 2/0 (L,R) ch, ~156 kbps | RUS / Stereo
    Аудио №2: 48.0 kHz, Advanced Audio Codec LC, 2/0 (L,R) ch, ~156 kbps | ENG / Stereo
    Аудио №3: 48.0 kHz, AC3 Dolby Digital, 3/2 (L,C,R,l,r) + LFE ch, ~384 kbps | RUS
    Аудио №4: 48.0 kHz, AC3 Dolby Digital, 3/2 (L,C,R,l,r) + LFE ch, ~640 kbps | ENG
    Формат субтитров: Timed Text

    Дата премьеры (мир): 1 июля 2016
    Дата премьеры (РФ): 22 июня 2017, «АКМ»

    [img]http://s020.radikal.ru/i720/1609/54/5ae4dee54ff4.gif[/img]

    Media Info
    General
    Complete name                            : Anthropoid (1080p HD).m4v
    Format                                   : MPEG-4
    Codec ID                                 : M4V  (M4V /M4A /mp42/isom)
    File size                                : 11.4 GiB
    Duration                                 : 2h 0mn
    Overall bit rate mode                    : Variable
    Overall bit rate                         : 13.5 Mbps

    Video #1
    ID                                       : 1
    Format                                   : AVC
    Format/Info                              : Advanced Video Codec
    Format profile                           : High@L4
    Format settings, CABAC                   : Yes
    Format settings, ReFrames                : 4 frames
    Codec ID                                 : avc1
    Codec ID/Info                            : Advanced Video Coding
    Duration                                 : 2h 0mn
    Source duration                          : 2h 0mn
    Bit rate                                 : 12.2 Mbps
    Width                                    : 1 920 pixels
    Height                                   : 800 pixels
    Display aspect ratio                     : 2.40:1
    Frame rate mode                          : Variable
    Frame rate                               : 23.976 (24000/1001) fps
    Minimum frame rate                       : 23.974 fps
    Maximum frame rate                       : 23.981 fps
    Color space                              : YUV
    Chroma subsampling                       : 4:2:0
    Bit depth                                : 8 bits
    Scan type                                : Progressive
    Bits/(Pixel*Frame)                       : 0.331
    Stream size                              : 10.3 GiB (90%)
    Source stream size                       : 10.3 GiB (90%)
    Title                                    : Main Program
    Writing library                          : x264 core 148 r2708 86b7198
    Encoding settings                        : cabac=1 / ref=4 / deblock=1:-2:-2 / analyse=0x3:0x133 / me=umh / subme=10 / psy=1 / psy_rd=1.00:0.15 / mixed_ref=1 / me_range=32 / chroma_me=1 / trellis=2 / 8x8dct=1 / cqm=0 / deadzone=21,11 / fast_pskip=1 / chroma_qp_offset=-3 / threads=25 / lookahead_threads=6 / sliced_threads=0 / nr=0 / decimate=0 / interlaced=0 / bluray_compat=0 / constrained_intra=0 / bframes=16 / b_pyramid=2 / b_adapt=2 / b_bias=0 / direct=3 / weightb=1 / open_gop=0 / weightp=2 / keyint=240 / keyint_min=24 / scenecut=40 / intra_refresh=0 / rc_lookahead=40 / rc=2pass / mbtree=1 / bitrate=12200 / ratetol=1.0 / qcomp=0.70 / qpmin=0 / qpmax=69 / qpstep=4 / cplxblur=20.0 / qblur=0.5 / ip_ratio=1.40 / aq=1:1.00
    Language                                 : English
    Encoded date                             : UTC 2017-07-24 08:47:38
    Tagged date                              : UTC 2017-07-24 08:50:04
    Color range                              : Limited
    Color primaries                          : BT.709
    Transfer characteristics                 : BT.709
    Matrix coefficients                      : BT.709
    Menus                                    : 7,8

    Video #2
    ID                                       : 8
    Format                                   : JPEG
    Codec ID                                 : jpeg
    Duration                                 : 2h 0mn
    Bit rate mode                            : Variable
    Bit rate                                 : 878 bps
    Width                                    : 640 pixels
    Height                                   : 266 pixels
    Display aspect ratio                     : 2.40:1
    Frame rate mode                          : Variable
    Frame rate                               : 0.003 fps
    Minimum frame rate                       : 0.002 fps
    Maximum frame rate                       : 0.004 fps
    Color space                              : YUV
    Chroma subsampling                       : 4:2:0
    Bit depth                                : 8 bits
    Compression mode                         : Lossy
    Bits/(Pixel*Frame)                       : 1.719
    Stream size                              : 715 KiB (0%)
    Title                                    : Chapter Images
    Language                                 : English
    Default                                  : No
    Encoded date                             : UTC 2017-07-24 08:50:13
    Tagged date                              : UTC 2017-07-24 08:50:14
    Menu For                                 : 1

    Audio #1
    ID                                       : 2
    Format                                   : AAC
    Format/Info                              : Advanced Audio Codec
    Format profile                           : LC
    Codec ID                                 : 40
    Duration                                 : 2h 0mn
    Bit rate mode                            : Variable
    Bit rate                                 : 156 Kbps
    Maximum bit rate                         : 242 Kbps
    Channel(s)                               : 2 channels
    Channel positions                        : Front: L R
    Sampling rate                            : 48.0 KHz
    Frame rate                               : 46.875 fps (1024 SPF)
    Compression mode                         : Lossy
    Stream size                              : 135 MiB (1%)
    Title                                    : Russian Stereo
    Language                                 : Russian
    Default                                  : Yes
    Alternate group                          : 1
    Encoded date                             : UTC 2017-07-24 08:47:38
    Tagged date                              : UTC 2017-07-24 08:47:49
    Fallback From                            : 4
    Menus                                    : 7

    Audio #2
    ID                                       : 3
    Format                                   : AAC
    Format/Info                              : Advanced Audio Codec
    Format profile                           : LC
    Codec ID                                 : 40
    Duration                                 : 2h 0mn
    Bit rate mode                            : Variable
    Bit rate                                 : 156 Kbps
    Maximum bit rate                         : 261 Kbps
    Channel(s)                               : 2 channels
    Channel positions                        : Front: L R
    Sampling rate                            : 48.0 KHz
    Frame rate                               : 46.875 fps (1024 SPF)
    Compression mode                         : Lossy
    Stream size                              : 135 MiB (1%)
    Title                                    : English Stereo
    Language                                 : English
    Default                                  : No
    Alternate group                          : 1
    Encoded date                             : UTC 2017-07-24 08:47:38
    Tagged date                              : UTC 2017-07-24 08:47:49
    Fallback From                            : 5

    Audio #3
    ID                                       : 4
    Format                                   : AC-3
    Format/Info                              : Audio Coding 3
    Format settings, Endianness              : Big
    Codec ID                                 : ac-3
    Duration                                 : 2h 0mn
    Bit rate mode                            : Constant
    Bit rate                                 : 384 Kbps
    Channel(s)                               : 6 channels
    Channel positions                        : Front: L C R, Side: L R, LFE
    Sampling rate                            : 48.0 KHz
    Frame rate                               : 31.250 fps (1536 SPF)
    Bit depth                                : 16 bits
    Compression mode                         : Lossy
    Stream size                              : 332 MiB (3%)
    Title                                    : Russian DD 5.1
    Language                                 : Russian
    Service kind                             : Complete Main
    Default                                  : Inherited From: 2
    Alternate group                          : 1
    Encoded date                             : UTC 2017-07-24 08:47:38
    Tagged date                              : UTC 2017-07-24 08:47:46
    Fallback To                              : 2

    Audio #4
    ID                                       : 5
    Format                                   : AC-3
    Format/Info                              : Audio Coding 3
    Format settings, Endianness              : Big
    Codec ID                                 : ac-3
    Duration                                 : 2h 0mn
    Bit rate mode                            : Constant
    Bit rate                                 : 640 Kbps
    Channel(s)                               : 6 channels
    Channel positions                        : Front: L C R, Side: L R, LFE
    Sampling rate                            : 48.0 KHz
    Frame rate                               : 31.250 fps (1536 SPF)
    Bit depth                                : 16 bits
    Compression mode                         : Lossy
    Stream size                              : 553 MiB (5%)
    Title                                    : English DD 5.1
    Language                                 : English
    Service kind                             : Complete Main
    Default                                  : No
    Alternate group                          : 1
    Encoded date                             : UTC 2017-07-24 08:47:38
    Tagged date                              : UTC 2017-07-24 08:47:46
    Fallback To                              : 3

    Text
    ID                                       : 6
    Format                                   : Timed Text
    Muxing mode                              : sbtl
    Codec ID                                 : tx3g
    Duration                                 : 1h 48mn
    Bit rate mode                            : Variable
    Bit rate                                 : 39 bps
    Stream size                              : 30.8 KiB (0%)
    Title                                    : English full
    Language                                 : English
    Default                                  : Yes
    Forced                                   : No
    Alternate group                          : 2
    Encoded date                             : UTC 2017-07-24 08:47:38
    Tagged date                              : UTC 2017-07-24 08:47:38

    Menu #1
    00:00:00.000                             : Chapter 1
    00:08:32.053                             : Chapter 2
    00:12:57.860                             : Chapter 3
    00:18:48.294                             : Chapter 4
    00:24:35.599                             : Chapter 5
    00:28:54.107                             : Chapter 6
    00:34:02.207                             : Chapter 7
    00:39:41.754                             : Chapter 8
    00:48:58.227                             : Chapter 9
    00:56:04.987                             : Chapter 10
    00:59:55.842                             : Chapter 11
    01:06:37.535                             : Chapter 12
    01:12:14.997                             : Chapter 13
    01:17:09.041                             : Chapter 14
    01:23:09.693                             : Chapter 15
    01:28:13.121                             : Chapter 16
    01:32:06.396                             : Chapter 17
    01:39:01.769                             : Chapter 18
    01:44:38.731                             : Chapter 19
    01:54:37.829                             : Chapter 20

    Menu #2
    ID                                       : 7
    Codec ID                                 : text
    Duration                                 : 2h 0mn
    Language                                 : English
    Encoded date                             : UTC 2017-07-24 08:50:04
    Tagged date                              : UTC 2017-07-24 08:50:04
    Menu For                                 : 2,1
    00:00:00.000                             : Chapter 1
    00:08:32.053                             : Chapter 2
    00:12:57.860                             : Chapter 3
    00:18:48.294                             : Chapter 4
    00:24:35.599                             : Chapter 5
    00:28:54.107                             : Chapter 6
    00:34:02.207                             : Chapter 7
    00:39:41.754                             : Chapter 8
    00:48:58.227                             : Chapter 9
    00:56:04.987                             : Chapter 10
    00:59:55.842                             : Chapter 11
    01:06:37.535                             : Chapter 12
    01:12:14.997                             : Chapter 13
    01:17:09.041                             : Chapter 14
    01:23:09.693                             : Chapter 15
    01:28:13.121                             : Chapter 16
    01:32:06.396                             : Chapter 17
    01:39:01.769                             : Chapter 18
    01:44:38.731                             : Chapter 19
    01:54:37.829                             : Chapter 20
    Bit rate mode                            : VBR


    Скриншоты
    [img]http://img10.lostpic.net/2017/09/19/a1d5e5669bf09025412e5c90694fa5b0.png[/img][img]http://img10.lostpic.net/2017/09/19/7a68874d2df3ab137cd2ae70e170dc6d.png[/img][img]http://img10.lostpic.net/2017/09/19/831217f52c4c1c6eaa5bd513cc81c1b6.png[/img]


    Дополнительная информация: релиз подготовлен для просмотра на Apple TV, iPad, iPhone, iPod Touch.
    Для просмотра данного релиза на компьютере с ОС Windows рекомендуется использовать VLC media player
    Еще похожие »

    Как скачать?
    1. Качаем UTorrent версии 2.0 и выше отсюда
    2. После установки, жмем на ссылку Скачать торрент.
    3. Открываем его через utorrent.
    4. Ждем пока подключатся участники.
    5. Качаем.


    Комментарии о Антропоид / Anthropoid | BDRip 1080p
    Добавлять комментарии могут только зарегистрированные пользователи

    Зарегистрироваться или Войти


    Ближайшее в кино
    • Безумие Георга III дата выхода 20 ноября 2018Безумие Георга III
      Дата выхода: 20 ноября 2018
    • 7226|Догвилль|22 ноября 2018|200|300Догвилль
      Дата выхода: 22 ноября 2018
    • 1009784|Апгрейд|22 ноября 2018|200|300Апгрейд
      Дата выхода: 22 ноября 2018
    • 988782|Ральф против интернета|22 ноября 2018|200|300Ральф против интернета
      Дата выхода: 22 ноября 2018
    • 965901|Вдовы|22 ноября 2018|200|300Вдовы
      Дата выхода: 22 ноября 2018
    • 1011685|Нация убийц|22 ноября 2018|200|300Нация убийц
      Дата выхода: 22 ноября 2018
    • 891414|Жена|22 ноября 2018|200|300Жена
      Дата выхода: 22 ноября 2018
    • 934207|Мотылёк|22 ноября 2018|200|300Мотылёк
      Дата выхода: 22 ноября 2018
    • 1044912|Вечерняя школа|22 ноября 2018|200|300Вечерняя школа
      Дата выхода: 22 ноября 2018
    • 1036188|Быть Астрид Линдгрен|22 ноября 2018|200|300Быть Астрид Линдгрен
      Дата выхода: 22 ноября 2018
    • 1048852|Помешанный на времени|22 ноября 2018|200|300Помешанный на времени
      Дата выхода: 22 ноября 2018
    • 1049775|Подбросы|22 ноября 2018|200|300Подбросы
      Дата выхода: 22 ноября 2018
    • 1108741|Я — миллиардер|22 ноября 2018|200|300Я — миллиардер
      Дата выхода: 22 ноября 2018
    • 1118041|Три лица|22 ноября 2018|200|300Три лица
      Дата выхода: 22 ноября 2018
    • 1209190|МУЛЬТ в кино. Выпуск 85. Мамин праздник|24 ноября 2018|200|300МУЛЬТ в кино. Выпуск 85. Мамин праздник
      Дата выхода: 24 ноября 2018
    Вверх