• Игры для PS4
  • Игры для PS3
  • Игры для XBOX360
  • Игры для PC
  • Игры для PS2
  • Игры для PSP
  • Для телефонов
  • Музыка
  • Книги / Журналы
  • Обои
  • Опрос
    Откуда Вы о нас узнали?
      0
    • От знакомых2,1,false,300,full
    • Из социальных сетей2,2,false,300,full
    • Из поисковых систем2,3,false,300,full
    • Другое2,4,false,300,full
    Статистика
    Всего онлайн -
    Гостей -
    Пользователей -
    Короли трекера
    
    Благодарности () Закрыть
    Информация о фильме
    Название: Мартовские коты
    Оригинальное название: Tomcats
    Год выхода: 2001
    Жанр:  комедия
    Режиссер: Грегори Пуарье
    В ролях: Джерри О’Коннелл, Шеннон Элизабет, Джейк Бьюзи, Орасио Санс, Джейми Прессли, Берни Кейси, Дэвид Огден Стайерз, Трэвис Файн, Хэзер Стивенс, Джулия Шульц

    О фильме :
    Мартовские коты — это компания старшеклассников, заключивших пакт; каждый делает ежемесячные взносы, а весь куш получит последний оставшийся холостяком. По происшествии нескольких лет холостяков осталось двое. И одному нужны деньги, чтобы расплатиться с мафией, а второй ненавидит женщин. Первый готов поделиться кушем с девицей, которая разведет второго на брачный контракт, но сам поддается ее чарам. Самое интересное — это не отношение героев, а юмор.



    Страна: США
    Студия: Eagle Cove Entertainment
    Продолжительность: 01:34:41
    Перевод: Дублированный

    Файл
    Формат: MKV
    Качество: HDRip-AVC
    Видео: MPEG-4 AVC, 736x400, ~ 1028 Кбит/с
    Аудио: [img]http://i93.fastpic.ru/big/2017/0727/c0/4b72f0369a3393219ed5935e91fc15c0.gif[/img] AAC-LC, 2 ch, ~72 Кбит/с
    Субтитры: русские, английские

    MI
    Общее
    Уникальный идентификатор : 213483872756837523194696142907127036030 (0xA09B7F91CF097AB990DCE49053DEF87E)
    Полное имя : D:MOVIESMartovskie.Koty.2001.ExKinoRay.mkv
    Формат : Matroska
    Версия формата : Version 4 / Version 2
    Размер файла : 746 Мбайт
    Продолжительность : 1 ч. 34 м.
    Общий поток : 1101 Кбит/сек
    Дата кодирования : UTC 2017-09-19 11:11:38
    Программа кодирования : mkvmerge v15.0.0 ("Duel with the Devil") 64-bit
    Библиотека кодирования : libebml v1.3.5 + libmatroska v1.4.5

    Видео
    Идентификатор : 1
    Формат : AVC
    Формат/Информация : Advanced Video Codec
    Профиль формата : High@L4.1
    Параметр CABAC формата : Да
    Параметр RefFrames формата : 10 кадров
    Идентификатор кодека : V_MPEG4/ISO/AVC
    Продолжительность : 1 ч. 34 м.
    Битрейт : 1028 Кбит/сек
    Ширина : 736 пикселей
    Высота : 400 пикселей
    Соотношение сторон : 1,85:1
    Режим частоты кадров : Постоянный
    Частота кадров : 23,976 (24000/1001) кадра/сек
    Цветовое пространство : YUV
    Субдискретизация насыщенности : 4:2:0
    Битовая глубина : 8 бит
    Тип развёртки : Прогрессивная
    Бит/(Пиксели*Кадры) : 0.146
    Размер потока : 696 Мбайт (93%)
    Библиотека кодирования : x264 core 130 r2273 b3065e6
    Настройки программы : cabac=1 / ref=10 / deblock=1:-2:-2 / analyse=0x3:0x113 / me=umh / subme=11 / psy=1 / psy_rd=1.00:0.10 / mixed_ref=1 / me_range=32 / chroma_me=1 / trellis=2 / 8x8dct=1 / cqm=0 / deadzone=21,11 / fast_pskip=0 / chroma_qp_offset=-3 / threads=6 / lookahead_threads=1 / sliced_threads=0 / nr=0 / decimate=0 / interlaced=0 / bluray_compat=0 / constrained_intra=0 / bframes=10 / b_pyramid=2 / b_adapt=2 / b_bias=0 / direct=3 / weightb=1 / open_gop=0 / weightp=2 / keyint=240 / keyint_min=23 / scenecut=40 / intra_refresh=0 / rc_lookahead=40 / rc=2pass / mbtree=0 / bitrate=1028 / ratetol=1.0 / qcomp=0.60 / qpmin=0 / qpmax=69 / qpstep=4 / cplxblur=20.0 / qblur=0.5 / vbv_maxrate=50000 / vbv_bufsize=62500 / nal_hrd=none / ip_ratio=1.40 / pb_ratio=1.30 / aq=1:1.00
    Default : Да
    Forced : Нет

    Аудио
    Идентификатор : 2
    Формат : AAC
    Формат/Информация : Advanced Audio Codec
    Профиль формата : LC
    Идентификатор кодека : A_AAC
    Продолжительность : 1 ч. 34 м.
    Битрейт : 72,0 Кбит/сек
    Каналы : 2 канала
    Расположение каналов : Front: L R
    Частота : 48,0 КГц
    Частота кадров : 46,875 кадров/сек (1024 SPF)
    Метод сжатия : С потерями
    Задержка видео : 9 мс.
    Размер потока : 48,8 Мбайт (7%)
    Default : Да
    Forced : Нет

    Текст #1
    Идентификатор : 3
    Формат : UTF-8
    Идентификатор кодека : S_TEXT/UTF8
    Идентификатор кодека/Информация : UTF-8 Plain Text
    Продолжительность : 1 ч. 30 м.
    Битрейт : 106 бит/сек
    ElementCount : 1279
    Размер потока : 70,4 Кбайт (0%)
    Заголовок : Full
    Язык : Russian
    Default : Нет
    Forced : Нет

    Текст #2
    Идентификатор : 4
    Формат : UTF-8
    Идентификатор кодека : S_TEXT/UTF8
    Идентификатор кодека/Информация : UTF-8 Plain Text
    Продолжительность : 1 ч. 30 м.
    Битрейт : 63 бит/сек
    ElementCount : 1279
    Размер потока : 42,4 Кбайт (0%)
    Заголовок : Full
    Язык : English
    Default : Нет
    Forced : Нет

    Меню
    00:00:00.000 : en:00:00:00.000
    00:06:39.149 : en:00:06:39.149
    00:10:36.678 : en:00:10:36.678
    00:17:35.888 : en:00:17:35.888
    00:25:19.977 : en:00:25:19.977
    00:28:53.273 : en:00:28:53.273
    00:34:35.240 : en:00:34:35.240
    00:41:52.677 : en:00:41:52.677
    00:46:10.851 : en:00:46:10.851
    00:48:24.318 : en:00:48:24.318
    00:53:06.600 : en:00:53:06.600
    01:02:45.387 : en:01:02:45.387
    01:07:18.409 : en:01:07:18.409
    01:13:53.054 : en:01:13:53.054
    01:16:30.044 : en:01:16:30.044
    01:21:58.956 : en:01:21:58.956
    Свернуть


    Скриншоты
    [screen]http://i91.fastpic.ru/big/2017/0919/99/10913ccc163f143f06b1736b3ffad699.jpg[/screen][screen]http://i91.fastpic.ru/big/2017/0919/e0/3331688289f808ea6a07e29ebb3d6de0.jpg[/screen][screen]http://i89.fastpic.ru/big/2017/0919/42/38868b999535f4ef8d9bec79f87af242.jpg[/screen][screen]http://i91.fastpic.ru/big/2017/0919/62/1c3eef6aa40f2f45f9bb4691c1fc5e62.jpg[/screen]

    [screen]http://i91.fastpic.ru/big/2017/0919/7e/19b4e292cd8de134ad6647a7add0f87e.jpg[/screen][screen]http://i91.fastpic.ru/big/2017/0919/17/250d94d2ab6c4a62218edcffc2f48917.jpg[/screen][screen]http://i91.fastpic.ru/big/2017/0919/c3/6b32dbb5299fac5b61e99fcd668713c3.jpg[/screen][screen]http://i91.fastpic.ru/big/2017/0919/e1/868821c6382e956be83abfc841c096e1.jpg[/screen]Свернуть
    Похожие раздачи Искать похожие
    Инструкция по скачиванию
     1  Качаем uTorrent версии 2.0 и выше
     2  После установки, жмем выше под постером на ссылку Скачать [MediaGet] или Скачать .torrent
     3  Открываем скачанный файл через соответствующий клиент: MediaGet или uTorrent
     4  Ждем пока подключатся участники
     5  Качаем
    Комментарии о  Мартовские коты / Tomcats | HDRip-AVC 
    Ближайшее в кино
    Вверх