• Игры для PS4
  • Игры для PS3
  • Игры для XBOX360
  • Игры для PC
  • Игры для PS2
  • Игры для PSP
  • Для телефонов
  • Музыка
  • Книги / Журналы
  • Обои
  • Опрос
    Удобен ли сайт в использовании?
      0
    • Очень удобен, все понятно1,1,false,300,full
    • Удобен1,2,false,300,full
    • Средне1,3,false,300,full
    • Неудобен, трудно ориентироваться1,4,false,300,full
    • Совсем неудобен1,5,false,300,full
    Статистика
    Всего онлайн -
    Гостей -
    Пользователей -
    Короли трекера
    
    Благодарности () Закрыть
    Информация о фильме
    Название: Трансформеры: Эпоха истребления
    Оригинальное название: Transformers: Age Of Extinction
    Год выхода: 2014
    Жанр: Фантастика, боевик, приключения
    Режиссер: Майкл Бэй
    В ролях: Марк Уолберг, Никола Пельтц, Стэнли Туччи, Келси Грэммер, София Майлс, Эбигейл Клейн, Джек Рейнор, Титус Уэлливер, Питер Каллен, ТиДжей Миллер

    О фильме:
    Автоботы и десептиконы покинули планету, оставив человечество собирать ее по кусочкам. Между тем группа могущественных бизнесменов и гениальных ученых пытается извлечь уроки из ошибок прошлого и улучшить технологии до такой степени, чтобы выйти за пределы контролируемого ранее. В это время другая группа — древних мощных трансформеров — берет Землю под прицел.

    [img]http://www.kinopoisk.ru/rating/651857.gif[/img]

    Страна: США, Китай
    Продолжительность: 02:45:07
    Перевод: Дублированный
    Файл
    Кодек: AVC
    Качество: Blu-Ray Remux 1080p
    Видео: 1920x1080, ~ 17500 Кбит/сек, 23.976 fps
    Звук:
    Аудио #1: Русский (AC3, 48 KHz, 6 ch, 640 kbps) | Лицензия (BD CEE)
    Аудио #2: Английский (DTS-HD MA, 48 KHz, 6 ch, 4027 kbps) | Original
    Аудио #3: Английский (AC3, 48 KHz, 6 ch, 640 kbps) | Original
    Субтитры: Русские (Forced, Full), Украинские (Full), Английские (Forced, Full, SDH, SDH-COLORED)
    Внимание!
    Автор сборки - gogamel74
    Исходник - Transformers.Age.of.Extinction.3D.Blu-Ray.1080p
    Оригинальная (английская) аудио дорога формата "TrueHD" пересобрана в "DTS-HD MA".
    Сохранены оригинальные чаптеры (главы) как на исходном Blu-Ray.Свернуть


    Mediainfo
    Полное имя                               :Transformery.Epoha.istrebleniya.IMAX.Edition.2014.Blu-Ray.Remux.1080p.mkv
    Формат                                   : Matroska
    Версия формата                           : Version 4 / Version 2
    Размер файла                             : 26,3 Гбайт
    Продолжительность                        : 2 ч. 45 м.
    Режим общего битрейта                    : Переменный
    Общий поток                              : 22,8 Мбит/сек
    Название фильма                          : Transformery.Epoha.istrebleniya.IMAX.Edition.2014.Blu-Ray.Remux.1080p
    Дата кодирования                         : UTC 2014-11-14 15:36:44
    Программа кодирования                    : mkvmerge v7.3.0 ("Nouages") 64bit built on Oct 22 2014 18:53:34
    Библиотека кодирования                   : libebml v1.3.0 + libmatroska v1.4.1
    Обложка                                  : Yes
    Attachments                              : CoverCommander.png

    Видео
    Идентификатор                            : 1
    Формат                                   : AVC
    Формат/Информация                        : Advanced Video Codec
    Профиль формата                          : High@L4.1
    Настройки формата                        : CABAC / 3 Ref Frames
    Параметр CABAC формата                   : Да
    Параметр RefFrames формата               : 3 кадра
    Параметр GOP формата                     : M=1, N=12
    Идентификатор кодека                     : V_MPEG4/ISO/AVC
    Продолжительность                        : 2 ч. 45 м.
    Вид битрейта                             : Переменный
    Битрейт                                  : 17,5 Мбит/сек
    Максимальный битрейт                     : 35,0 Мбит/сек
    Ширина                                   : 1920 пикселей
    Высота                                   : 1080 пикселей
    Соотношение сторон                       : 16:9
    Режим частоты кадров                     : Постоянный
    Частота кадров                           : 23,976 (24000/1001) кадра/сек
    Цветовое пространство                    : YUV
    Субдискретизация насыщенности            : 4:2:0
    Битовая глубина                          : 8 бит
    Тип развёртки                            : Прогрессивная
    Бит/(Пиксели*Кадры)                      : 0.352
    Размер потока                            : 20,2 Гбайт (77%)
    Заголовок                                : Transformery.Epoha.istrebleniya.IMAX.Edition.2014.Blu-Ray.Remux.1080p
    Язык                                     : Russian
    Default                                  : Да
    Forced                                   : Да

    Аудио #1
    Идентификатор                            : 2
    Формат                                   : AC-3
    Формат/Информация                        : Audio Coding 3
    Параметр Endianness формата              : Big
    Идентификатор кодека                     : A_AC3
    Продолжительность                        : 2 ч. 45 м.
    Вид битрейта                             : Постоянный
    Битрейт                                  : 640 Кбит/сек
    Каналы                                   : 6 каналов
    Расположение каналов                     : Front: L C R, Side: L R, LFE
    Частота                                  : 48,0 КГц
    Частота кадров                           : 31,250 кадров/сек (1536 SPF)
    Битовая глубина                          : 16 бит
    Метод сжатия                             : С потерями
    Размер потока                            : 756 Мбайт (3%)
    Заголовок                                : DUB - RUS - BD CEE - AC3, 48 KHz, 6 ch, 640 kbps, 16 bit
    Язык                                     : Russian
    ServiceKind                              : Complete Main
    Default                                  : Да
    Forced                                   : Да

    Аудио #2
    Идентификатор                            : 3
    Формат                                   : DTS
    Формат/Информация                        : Digital Theater Systems
    Профиль формата                          : MA / Core
    Режим                                    : 16
    Параметр Endianness формата              : Big
    Идентификатор кодека                     : A_DTS
    Продолжительность                        : 2 ч. 45 м.
    Вид битрейта                             : Переменный / Постоянный
    Битрейт                                  : 4026 Кбит/сек / 1509 Кбит/сек
    Каналы                                   : 8 каналов / 6 каналов
    Расположение каналов                     : Front: L C R, Side: L R, Back: L R, LFE / Front: L C R, Side: L R, LFE
    Частота                                  : 48,0 КГц
    Частота кадров                           : 93,750 кадра/сек (512 SPF)
    Битовая глубина                          : 24 бит
    Метод сжатия                             : Без потерь / Lossy
    Размер потока                            : 4,64 Гбайт (18%)
    Заголовок                                : Original - ENG - BD CEE - DTS-HD MA, 48 KHz, 6 ch, 4027 kbps, 24 bit
    Язык                                     : English
    Default                                  : Нет
    Forced                                   : Нет

    Аудио #3
    Идентификатор                            : 4
    Формат                                   : AC-3
    Формат/Информация                        : Audio Coding 3
    Параметр Endianness формата              : Big
    Идентификатор кодека                     : A_AC3
    Продолжительность                        : 2 ч. 45 м.
    Вид битрейта                             : Постоянный
    Битрейт                                  : 640 Кбит/сек
    Каналы                                   : 6 каналов
    Расположение каналов                     : Front: L C R, Side: L R, LFE
    Частота                                  : 48,0 КГц
    Частота кадров                           : 31,250 кадров/сек (1536 SPF)
    Битовая глубина                          : 16 бит
    Метод сжатия                             : С потерями
    Размер потока                            : 756 Мбайт (3%)
    Заголовок                                : Deive - ENG - BD CEE - AC3, 48 KHz, 6 ch, 640 kbps, 16 bit
    Язык                                     : English
    ServiceKind                              : Complete Main
    Default                                  : Нет
    Forced                                   : Нет

    Текст #1
    Идентификатор                            : 5
    Формат                                   : UTF-8
    Идентификатор кодека                     : S_TEXT/UTF8
    Идентификатор кодека/Информация          : UTF-8 Plain Text
    Продолжительность                        : 2 ч. 22 м.
    Битрейт                                  : 0 бит/сек
    ElementCount                             : 24
    Размер потока                            : 971 байт (0%)
    Заголовок                                : Forced - RUS - BD CEE
    Язык                                     : Russian
    Default                                  : Да
    Forced                                   : Да

    Текст #2
    Идентификатор                            : 6
    Формат                                   : UTF-8
    Идентификатор кодека                     : S_TEXT/UTF8
    Идентификатор кодека/Информация          : UTF-8 Plain Text
    Продолжительность                        : 2 ч. 36 м.
    Битрейт                                  : 92 бит/сек
    ElementCount                             : 1888
    Размер потока                            : 106 Кбайт (0%)
    Заголовок                                : Full - RUS - BD CEE
    Язык                                     : Russian
    Default                                  : Нет
    Forced                                   : Нет

    Текст #3
    Идентификатор                            : 7
    Формат                                   : UTF-8
    Идентификатор кодека                     : S_TEXT/UTF8
    Идентификатор кодека/Информация          : UTF-8 Plain Text
    Продолжительность                        : 2 ч. 34 м.
    Битрейт                                  : 101 бит/сек
    ElementCount                             : 2193
    Размер потока                            : 115 Кбайт (0%)
    Заголовок                                : Full - UKR - BD CEE
    Язык                                     : Ukrainian
    Default                                  : Нет
    Forced                                   : Нет

    Текст #4
    Идентификатор                            : 8
    Формат                                   : UTF-8
    Идентификатор кодека                     : S_TEXT/UTF8
    Идентификатор кодека/Информация          : UTF-8 Plain Text
    Продолжительность                        : 1 ч. 17 м.
    Битрейт                                  : 0 бит/сек
    ElementCount                             : 9
    Размер потока                            : 372 байт (0%)
    Заголовок                                : Forced - ENG - BD CEE
    Язык                                     : English
    Default                                  : Нет
    Forced                                   : Нет

    Текст #5
    Идентификатор                            : 9
    Формат                                   : UTF-8
    Идентификатор кодека                     : S_TEXT/UTF8
    Идентификатор кодека/Информация          : UTF-8 Plain Text
    Продолжительность                        : 2 ч. 34 м.
    Битрейт                                  : 62 бит/сек
    ElementCount                             : 2206
    Размер потока                            : 70,9 Кбайт (0%)
    Заголовок                                : Full - ENG - BD CEE
    Язык                                     : English
    Default                                  : Нет
    Forced                                   : Нет

    Текст #6
    Идентификатор                            : 10
    Формат                                   : UTF-8
    Идентификатор кодека                     : S_TEXT/UTF8
    Идентификатор кодека/Информация          : UTF-8 Plain Text
    Продолжительность                        : 2 ч. 35 м.
    Битрейт                                  : 68 бит/сек
    ElementCount                             : 2509
    Размер потока                            : 78,7 Кбайт (0%)
    Заголовок                                : SDH - ENG - BD CEE
    Язык                                     : English
    Default                                  : Нет
    Forced                                   : Нет

    Текст #7
    Идентификатор                            : 11
    Формат                                   : UTF-8
    Идентификатор кодека                     : S_TEXT/UTF8
    Идентификатор кодека/Информация          : UTF-8 Plain Text
    Продолжительность                        : 2 ч. 35 м.
    Битрейт                                  : 85 бит/сек
    ElementCount                             : 2509
    Размер потока                            : 97,5 Кбайт (0%)
    Заголовок                                : SDH-COLORED - ENG - BD CEE
    Язык                                     : English
    Default                                  : Нет
    Forced                                   : Нет

    Меню
    00:00:00.000                             : en:00:00:00.000
    00:06:51.578                             : en:00:06:51.578
    00:14:33.581                             : en:00:14:33.581
    00:21:37.463                             : en:00:21:37.463
    00:30:13.395                             : en:00:30:13.395
    00:38:45.990                             : en:00:38:45.990
    00:46:08.057                             : en:00:46:08.057
    00:51:39.513                             : en:00:51:39.513
    00:59:09.337                             : en:00:59:09.337
    01:07:48.648                             : en:01:07:48.648
    01:15:14.552                             : en:01:15:14.552
    01:23:25.292                             : en:01:23:25.292
    01:29:14.724                             : en:01:29:14.724
    01:37:16.956                             : en:01:37:16.956
    01:44:35.436                             : en:01:44:35.436
    01:51:25.053                             : en:01:51:25.053
    01:57:47.936                             : en:01:57:47.936
    02:04:48.481                             : en:02:04:48.481
    02:12:35.865                             : en:02:12:35.865
    02:21:04.206                             : en:02:21:04.206
    02:28:48.670                             : en:02:28:48.670
    02:37:09.629                             : en:02:37:09.629Свернуть


    Скриншоты
    [screen]http://i91.fastpic.ru/thumb/2017/0919/11/_8a6384df8dd33a289cacd85065828211.jpeg[/screen][screen]http://i91.fastpic.ru/big/2017/0919/48/44cea9391ece92c8307272e370cc4448.png[/screen][screen]http://i91.fastpic.ru/big/2017/0919/68/5f2d5fd860547992afd780d504256868.png[/screen][screen]http://i91.fastpic.ru/big/2017/0919/db/1447023b3d18e4d3b0b24de295cc2edb.png[/screen]Свернуть
    Похожие раздачи Искать похожие
    Инструкция по скачиванию
     1  Качаем uTorrent версии 2.0 и выше
     2  После установки, жмем выше под постером на ссылку Скачать [MediaGet] или Скачать .torrent
     3  Открываем скачанный файл через соответствующий клиент: MediaGet или uTorrent
     4  Ждем пока подключатся участники
     5  Качаем
    Комментарии о  Трансформеры: Эпоха истребления / Transformers: Age of Extinction | BDRemux 1080p 
    Ближайшее в кино
    Вверх