• Игры для PS4
  • Игры для PS3
  • Игры для XBOX360
  • Игры для PC
  • Игры для PS2
  • Игры для PSP
  • Для телефонов
  • Музыка
  • Книги/Журналы
  • Обои
  •  
    Опрос
    Откуда Вы о нас узнали?
      0
    • От знакомых2,1,false,300,full
    • Из социальных сетей2,2,false,300,full
    • Из поисковых систем2,3,false,300,full
    • Другое2,4,false,300,full
    Статистика
    Загрузка...
    Скрижали судьбы / The Secret Scripture | BDRip 720p
    Статус  Проверено
    В закладки
    Модератор: Max

    Скрижали судьбы / The Secret Scripture | BDRip 720p [Фильмы 2016] скачать торрентом/torrent бесплатно

    Год выхода
    Категории
    Язык
    Закачал
    Аноним | 19 сентября 2017 в 18ч 47м 29с
    Раздел
    Отзывов
    0
    Раздают: 16 Качают: 0 Скачали: 18 Размер: 3.82 GB
    Инфо о раздаче | Благодарности |
    0/5
    0
    0 5 0
    Поддержи нас — расскажи друзьям!
    Orbitum
    Новый интернет-браузер Быстрее загружает сайты Экономит интернет—трафик Меняет оформление страницы ВК Блокирует всю рекламу на сайтах Загружает торренты как

    µTorrent

    клиент
    Объеденяет все твои чаты из соц. сетей в один Проигрывает твою музыку не заходя во ВКонтакте
    Скачать и многое другое... Подробности на сайте производителя
    Информация о фильме
    Название: Скрижали судьбы
    Оригинальное название: The Secret ure
    Год выпуска: 2016
    Жанр:  Драма
    Режиссер: Джим Шеридан
    В ролях: Руни Мара, Тео Джеймс, Эйдан Тёрнер, Эрик Бана, Ванесса Редгрейв, Джек Рейнор, Сьюзэн Линч, Энтони Ачеампонг, Омар Шариф мл., Полин Маклин

    О фильме:
    Розанна Макналти, в молодости — неотразимая жизнелюбивая красавица, большую часть жизни провела в психиатрической клинике. Розанна находилась за решеткой так долго, что уже никто не помнил, почему она там оказалась. Когда в клинике появился очередной главврач, доктор Грин, судьба загадочной пациентки вызвала его особый интерес. Однажды Грин обнаружил спрятанный дневник Розанны. В течение нескольких десятилетий она записывала свои воспоминания. В этих мемуарах — тайна ее заключения и рассказ о поразительной жизни и всепоглощающей любви, страстной, мучительной, трагической…

    [img]http://www.kinopoisk.ru/rating/810310.gif[/img][img]http://i66.fastpic.ru/big/2016/0116/9a/a582c73dbb266bc095c7c0f47e54409a.gif[/img]

    Страна: Ирландия
    Студия: Apollo Media, Ferndale Films, Irish Film Board
    Продолжительность: 01:48:56
    Перевод: Дублированный | iTunes

    Файл
    Формат: MKV
    Качество: BDRip 720p | THE_SECRET_URE_BDREMUX_HDCLUB |
    Видео: MPEG-4 AVC, 3999 kb/s, 1280x530
    Аудио: Russian: AC3, 384 kb/s (6 ch) / English: AC3, 640 kb/s (6 ch)
    Субтитры: нет

    MI

    x264 [info]: frame I:1152 Avg QP:12.62 size: 99116
    x264 [info]: frame P:34378 Avg QP:14.81 size: 38383
    x264 [info]: frame B:121341 Avg QP:15.57 size: 15107
    x264 [info]: consecutive B-frames: 2.1% 3.2% 9.1% 19.3% 16.7% 37.3% 5.7% 2.0% 1.3% 0.9% 0.9% 0.6% 0.5% 0.4%
    =========================================================================================
    Общее
    Полное имя : The.Secret.ure.D.BDRip.720p.mkv
    Формат : Matroska
    Версия формата : Version 2
    Размер файла : 3,82 Гбайт
    Продолжительность : 1 ч. 48 м.
    Общий поток : 5024 Кбит/сек
    Дата кодирования : UTC 2017-09-18 12:27:44
    Программа кодирования : mkvmerge v7.8.0 ("River Man") 32bit built on Apr 3 2015 12:11:22
    Библиотека кодирования : libebml v1.3.1 + libmatroska v1.4.2

    Видео
    Идентификатор : 1
    Формат : AVC
    Формат/Информация : Advanced Video Codec
    Профиль формата : High@L4.1
    Параметр CABAC формата : Да
    Параметр ReFrames формата : 12 кадров
    Идентификатор кодека : V_MPEG4/ISO/AVC
    Продолжительность : 1 ч. 48 м.
    Битрейт : 3999 Кбит/сек
    Ширина : 1280 пикселей
    Высота : 530 пикселей
    Соотношение сторон : 2,40:1
    Режим частоты кадров : Постоянный
    Частота кадров : 24,000 кадра/сек
    Цветовое пространство : YUV
    Субдискретизация насыщенности : 4:2:0
    Битовая глубина : 8 бит
    Тип развёртки : Прогрессивная
    Бит/(Пиксели*Кадры) : 0.246
    Размер потока : 2,97 Гбайт (78%)
    Библиотека кодирования : x264 core 152 r2851 ba24899
    Настройки программы : cabac=1 / ref=12 / deblock=1:-2:-2 / analyse=0x3:0x133 / me=umh / subme=11 / psy=1 / psy_rd=1.00:0.00 / mixed_ref=1 / me_range=32 / chroma_me=0 / trellis=2 / 8x8dct=1 / cqm=0 / deadzone=21,11 / fast_pskip=0 / chroma_qp_offset=-2 / threads=12 / lookahead_threads=3 / sliced_threads=0 / nr=0 / decimate=0 / interlaced=0 / bluray_compat=0 / constrained_intra=0 / bframes=13 / b_pyramid=2 / b_adapt=2 / b_bias=0 / direct=3 / weightb=1 / open_gop=1 / weightp=2 / keyint=240 / keyint_min=23 / scenecut=40 / intra_refresh=0 / rc_lookahead=40 / rc=2pass / mbtree=0 / bitrate=3999 / ratetol=1.0 / qcomp=0.70 / qpmin=0 / qpmax=69 / qpstep=4 / cplxblur=20.0 / qblur=0.5 / vbv_maxrate=50000 / vbv_bufsize=62500 / nal_hrd=none / filler=0 / ip_ratio=1.30 / pb_ratio=1.20 / aq=3:0.80
    Язык : English
    Default : Да
    Forced : Нет
    Цветовой диапазон : Limited
    Основные цвета : BT.709
    Характеристики трансфера : BT.709
    Коэффициенты матрицы : BT.709

    Аудио #1
    Идентификатор : 2
    Формат : AC-3
    Формат/Информация : Audio Coding 3
    Параметр Endianness формата : Big
    Идентификатор кодека : A_AC3
    Продолжительность : 1 ч. 48 м.
    Вид битрейта : Постоянный
    Битрейт : 384 Кбит/сек
    Каналы : 6 каналов
    Расположение каналов : Front: L C R, Side: L R, LFE
    Частота : 48,0 КГц
    Частота кадров : 31,250 кадров/сек (1536 spf)
    Битовая глубина : 16 бит
    Метод сжатия : С потерями
    Размер потока : 299 Мбайт (8%)
    Язык : Russian
    Default : Да
    Forced : Нет

    Аудио #2
    Идентификатор : 3
    Формат : AC-3
    Формат/Информация : Audio Coding 3
    Параметр Endianness формата : Big
    Идентификатор кодека : A_AC3
    Продолжительность : 1 ч. 48 м.
    Вид битрейта : Постоянный
    Битрейт : 640 Кбит/сек
    Каналы : 6 каналов
    Расположение каналов : Front: L C R, Side: L R, LFE
    Частота : 48,0 КГц
    Частота кадров : 31,250 кадров/сек (1536 spf)
    Битовая глубина : 16 бит
    Метод сжатия : С потерями
    Размер потока : 499 Мбайт (13%)
    Язык : English
    Default : Нет
    Forced : Нет

    Меню
    00:00:00.000 : en:Chapter 1
    00:08:44.415 : en:Chapter 2
    00:17:52.833 : en:Chapter 3
    00:26:52.833 : en:Chapter 4
    00:36:57.833 : en:Chapter 5
    00:45:14.833 : en:Chapter 6
    00:54:19.208 : en:Chapter 7
    01:03:03.833 : en:Chapter 8
    01:13:09.416 : en:Chapter 9
    01:23:27.625 : en:Chapter 10
    01:29:01.832 : en:Chapter 11
    01:39:34.833 : en:Chapter 12



    Скриншоты
    [img]http://i92.fastpic.ru/big/2017/0919/d8/dbf1861de895b1b55ea9a95706577dd8.png[/img][img]http://i92.fastpic.ru/big/2017/0919/72/3b3aaadc76291045da436f37af862972.png[/img][img]http://i92.fastpic.ru/big/2017/0919/3d/371fa68370622f82be566d942acbe83d.png[/img]
    Еще похожие »

    Как скачать?
    1. Качаем UTorrent версии 2.0 и выше отсюда
    2. После установки, жмем на ссылку Скачать торрент.
    3. Открываем его через utorrent.
    4. Ждем пока подключатся участники.
    5. Качаем.


    Комментарии о Скрижали судьбы / The Secret Scripture | BDRip 720p
    Добавлять комментарии могут только зарегистрированные пользователи

    Зарегистрироваться или Войти


    Ближайшее в кино
    • Безумие Георга III дата выхода 20 ноября 2018Безумие Георга III
      Дата выхода: 20 ноября 2018
    • 7226|Догвилль|22 ноября 2018|200|300Догвилль
      Дата выхода: 22 ноября 2018
    • 1009784|Апгрейд|22 ноября 2018|200|300Апгрейд
      Дата выхода: 22 ноября 2018
    • 988782|Ральф против интернета|22 ноября 2018|200|300Ральф против интернета
      Дата выхода: 22 ноября 2018
    • 965901|Вдовы|22 ноября 2018|200|300Вдовы
      Дата выхода: 22 ноября 2018
    • 1011685|Нация убийц|22 ноября 2018|200|300Нация убийц
      Дата выхода: 22 ноября 2018
    • 891414|Жена|22 ноября 2018|200|300Жена
      Дата выхода: 22 ноября 2018
    • 934207|Мотылёк|22 ноября 2018|200|300Мотылёк
      Дата выхода: 22 ноября 2018
    • 1044912|Вечерняя школа|22 ноября 2018|200|300Вечерняя школа
      Дата выхода: 22 ноября 2018
    • 1036188|Быть Астрид Линдгрен|22 ноября 2018|200|300Быть Астрид Линдгрен
      Дата выхода: 22 ноября 2018
    • 1048852|Помешанный на времени|22 ноября 2018|200|300Помешанный на времени
      Дата выхода: 22 ноября 2018
    • 1049775|Подбросы|22 ноября 2018|200|300Подбросы
      Дата выхода: 22 ноября 2018
    • 1108741|Я — миллиардер|22 ноября 2018|200|300Я — миллиардер
      Дата выхода: 22 ноября 2018
    • 1118041|Три лица|22 ноября 2018|200|300Три лица
      Дата выхода: 22 ноября 2018
    • 1209190|МУЛЬТ в кино. Выпуск 85. Мамин праздник|24 ноября 2018|200|300МУЛЬТ в кино. Выпуск 85. Мамин праздник
      Дата выхода: 24 ноября 2018
    Вверх