• Игры для PS4
  • Игры для PS3
  • Игры для XBOX360
  • Игры для PC
  • Игры для PS2
  • Игры для PSP
  • Для телефонов
  • Музыка
  • Книги / Журналы
  • Обои
  • Опрос
    Откуда Вы о нас узнали?
      0
    • От знакомых2,1,false,300,full
    • Из социальных сетей2,2,false,300,full
    • Из поисковых систем2,3,false,300,full
    • Другое2,4,false,300,full
    Статистика
    Всего онлайн -
    Гостей -
    Пользователей -
    Короли трекера
    
    Благодарности () Закрыть
    Информация о фильме
    Название: Мираж
    Оригинальное название: Mirage
    Год выхода: 1965
    Жанр: мистика, триллер
    Режиссер: Эдвард Дмитрык / Edward Dmytryk
    В ролях: Грегори Пек, Дайан Бэйкер, Уолтер Мэттау, Кевин МакКарти, Джек Уэстон, Лейф Эриксон, Уолтер Абель, Джордж Кеннеди, Роберт Х. Харрис, Энн Сеймур

    О фильме:
    В офисе крупной компании происходят странные события: один человек выпадает из окна, другой — талантливый ученый — теряет память. Для расследования ученый нанимает детектива, но сам становится мишенью для преступников…


    Страна: США
    Студия: Universal Pictures
    Продолжительность: 01:48:44
    Перевод: Профессиональный (дублированный) Шестой Канал

    Файл
    Кодек: h.264
    Качество: WEB-DL 1080p
    Видео: 1920x1040, 1.85:1, 11100 kbps, 23.976 fps
    Звук:
    Аудио: Русский / дубляж, AC3, 2 ch, 48 KHz, 192 kbps
    Аудио 2: Английский, AC3, 2 ch, 48 KHz, 224 kbps
    Субтитры: русские (на непереведённую речь), английские (SRT)

    Семпл

    Скриншоты
    [screen]http://i91.fastpic.ru/big/2017/0919/9d/716eb701a10573e41870826a21bc899d.png[/screen][screen]http://i91.fastpic.ru/big/2017/0919/db/ac78aa557fb31348f587a9adfca1aadb.png[/screen][screen]http://i91.fastpic.ru/big/2017/0919/69/a83047bca3d2b919d8981070b3869c69.png[/screen][screen]http://i91.fastpic.ru/big/2017/0919/92/d155caa744f0895ab98b4a82326d5c92.png[/screen][screen]http://i91.fastpic.ru/big/2017/0919/d0/94205808ff1132d66758a178f44bfbd0.png[/screen][screen]http://i91.fastpic.ru/big/2017/0919/57/f98d0a58d36d36a856d0641eeee79c57.png[/screen]Свернуть


    M.I

    General
    Unique ID                   : 176170695363482566064231492370366445789 (0x84893DE37C52576B9B23B1D780A7B8DD)
    Complete name               : D:DownloadsMirage.1965.WEB-DL.1080p.mkv
    Format                      : Matroska
    Format version              : Version 4 / Version 2
    File size                   : 8.73 GiB
    Duration                    : 1 h 48 min
    Overall bit rate mode       : Variable
    Overall bit rate            : 11.5 Mb/s
    Encoded date                : UTC 2017-09-19 14:37:33
    Writing application         : mkvmerge v15.0.0 ("Duel with the Devil") 64-bit
    Writing library             : libebml v1.3.5 + libmatroska v1.4.5

    Video
    ID                          : 1
    Format                      : AVC
    Format/Info                 : Advanced Video Codec
    Format profile              : High@L4
    Format settings, CABAC      : Yes
    Format settings, ReFrames   : 4 frames
    Codec ID                    : V_MPEG4/ISO/AVC
    Duration                    : 1 h 48 min
    Bit rate mode               : Variable
    Bit rate                    : 11.1 Mb/s
    Maximum bit rate            : 15.0 Mb/s
    Width                       : 1 920 pixels
    Height                      : 1 040 pixels
    Display aspect ratio        : 1.85:1
    Frame rate mode             : Constant
    Frame rate                  : 23.976 (24000/1001) FPS
    Color space                 : YUV
    Chroma subsampling          : 4:2:0
    Bit depth                   : 8 bits
    Scan type                   : Progressive
    Bits/(Pixel*Frame)          : 0.231
    Stream size                 : 8.42 GiB (96%)
    Default                     : Yes
    Forced                      : No
    Color range                 : Limited
    Color primaries             : BT.709
    Transfer characteristics    : BT.709
    Matrix coefficients         : BT.709

    Audio #1
    ID                          : 2
    Format                      : AC-3
    Format/Info                 : Audio Coding 3
    Format settings, Endianness : Big
    Codec ID                    : A_AC3
    Duration                    : 1 h 48 min
    Bit rate mode               : Constant
    Bit rate                    : 192 kb/s
    Channel(s)                  : 2 channels
    Channel positions           : Front: L R
    Sampling rate               : 48.0 kHz
    Frame rate                  : 31.250 FPS (1536 spf)
    Bit depth                   : 16 bits
    Compression mode            : Lossy
    Stream size                 : 149 MiB (2%)
    Language                    : Russian
    Service kind                : Complete Main
    Default                     : Yes
    Forced                      : No

    Audio #2
    ID                          : 3
    Format                      : E-AC-3
    Format/Info                 : Enhanced Audio Coding 3
    Format settings, Endianness : Big
    Codec ID                    : A_EAC3
    Duration                    : 1 h 48 min
    Bit rate mode               : Constant
    Bit rate                    : 224 kb/s
    Channel(s)                  : 2 channels
    Channel positions           : Front: L R
    Sampling rate               : 48.0 kHz
    Frame rate                  : 187.500 FPS (256 spf)
    Compression mode            : Lossy
    Stream size                 : 174 MiB (2%)
    Language                    : English
    Service kind                : Complete Main
    Default                     : No
    Forced                      : No

    Text #1
    ID                          : 4
    Format                      : UTF-8
    Codec ID                    : S_TEXT/UTF8
    Codec ID/Info               : UTF-8 Plain Text
    Duration                    : 57 min 26 s
    Bit rate                    : 2 b/s
    Count of elements           : 23
    Stream size                 : 1.17 KiB (0%)
    Language                    : Russian
    Default                     : No
    Forced                      : No

    Text #2
    ID                          : 5
    Format                      : UTF-8
    Codec ID                    : S_TEXT/UTF8
    Codec ID/Info               : UTF-8 Plain Text
    Duration                    : 1 h 47 min
    Bit rate                    : 72 b/s
    Count of elements           : 1624
    Stream size                 : 57.3 KiB (0%)
    Language                    : English
    Default                     : No
    Forced                      : NoСвернуть
    Похожие раздачи Искать похожие
    Инструкция по скачиванию
     1  Качаем uTorrent версии 2.0 и выше
     2  После установки, жмем выше под постером на ссылку Скачать [MediaGet] или Скачать .torrent
     3  Открываем скачанный файл через соответствующий клиент: MediaGet или uTorrent
     4  Ждем пока подключатся участники
     5  Качаем
    Комментарии о  Мираж / Mirage | WEB-DL 1080p 
    Ближайшее в кино
    Вверх