• Игры для PS4
  • Игры для PS3
  • Игры для XBOX360
  • Игры для PC
  • Игры для PS2
  • Игры для PSP
  • Для телефонов
  • Музыка
  • Книги / Журналы
  • Обои
  • Опрос
    Удобен ли сайт в использовании?
      0
    • Очень удобен, все понятно1,1,false,300,full
    • Удобен1,2,false,300,full
    • Средне1,3,false,300,full
    • Неудобен, трудно ориентироваться1,4,false,300,full
    • Совсем неудобен1,5,false,300,full
    Статистика
    Всего онлайн -
    Гостей -
    Пользователей -
    Короли трекера
    
    Благодарности () Закрыть
    Название: Глава 27
    Оригинальное название: Chapter 27
    Год выхода: 2007
    Страна: США, Канада
    Студия: Peace Arch Entertainment Group, Artina Films
    Продолжительность: 01:24:27
    Жанр: драма, криминал, биография, история

    Режиссер: Дж.П. Шефер
    В ролях: Джаред Лето, Линдси Лохан, Марк Линдсэй Чэпман, Джуда Фридлендер, Брайан О’Нейлл, Адам Скаримболо, Марико Такаи, Виктор Верхак, Майкл Сироу, Чак Купер, ...

    Перевод:
    - Профессиональный (многоголосый, закадровый) ВГТРК
    - Любительский (многоголосный, закадровый) Media Lime
    - Субтитры

    О фильме: Нью-Йорк. 8 декабря 1980 года. Черная дата в истории рок-музыки. Джон Леннон выходит из его нью-йоркских апартаментов «Дакота», где он проживает со своей женой Йоко Оно. Марк Чэпман нажимает на курок и выпускает в рок-идола пять пуль подряд. Почему? За что? Что толкнуло этого на вид нормального, женатого человека убить легенду музыки и лидера молодежи 60-х?
    За несколько дней до трагедии психическое состояние Чэпмана стремительно ухудшается, он предается жесткой депрессии, его гнетет обыденность и мещанство, его все больше раздражает поведение фанатов, собирающихся у «Дакоты». Нет, жизнь не здесь, а там, «Над пропастью во ржи»…
    Нездоровая приверженность классическому роману приводит Чэпмана к потере чувства реальности и совершению одного из самых громких преступлений в истории человечества…



    Кодек: x264
    Качество: BDRip 1080p
    Видео: 1920x1080, 13000 kbps, 23,976 fps
    Аудио #1: AC-3, 2 ch, 192 kbps (Rus) - MVO ВГТРК
    Аудио #1: AC-3, 2 ch, 192 kbps (Rus) - MVOL Media Lime
    Аудио #3: AC-3, 6 ch, 448 kbps (Eng)
    Субтитры: русские, английские
    Спасибо за исходник

    MediaInfo

    x264 [info]: frame I:601   Avg QP:18.33  size:203742
    x264 [info]: frame P:24246 Avg QP:20.53  size:115621
    x264 [info]: frame B:96626 Avg QP:23.40  size: 54885
    x264 [info]: consecutive B-frames:  1.9%  3.0%  4.2%  6.5% 13.1% 58.6%  9.5%  0.5%  1.3%  0.3%  0.1%  0.1%  0.9%

    Общее
    Уникальный идентификатор : 171704437131898827745886703439176899521 (0x812D125B4D24E716A1BA77E584259BC1)
    Полное имя : Глава 27 (Chapter 27) 2007 BDRip 1080p.mkv
    Формат : Matroska
    Версия формата : Version 2
    Размер файла : 8,16 Гбайт
    Продолжительность : 1 ч. 24 м.
    Общий поток : 13,8 Мбит/сек
    Дата кодирования : UTC 2017-08-22 10:57:38
    Программа кодирования : mkvmerge v4.0.0 ("The Stars were mine") сборка от Jun 6 2010 16:18:42
    Библиотека кодирования : libebml v1.0.0 + libmatroska v1.0.0

    Видео
    Идентификатор : 1
    Формат : AVC
    Формат/Информация : Advanced Video Codec
    Профиль формата : High@L4.1
    Параметр CABAC формата : Да
    Параметр ReFrames формата : 4 кадра
    Идентификатор кодека : V_MPEG4/ISO/AVC
    Продолжительность : 1 ч. 24 м.
    Битрейт : 13,0 Мбит/сек
    Ширина : 1920 пикселей
    Высота : 1080 пикселей
    Соотношение сторон : 16:9
    Режим частоты кадров : Постоянный
    Частота кадров : 23,976 (24000/1001) кадра/сек
    Цветовое пространство : YUV
    Субдискретизация насыщенности : 4:2:0
    Битовая глубина : 8 бит
    Тип развёртки : Прогрессивная
    Бит/(Пиксели*Кадры) : 0.261
    Размер потока : 7,50 Гбайт (92%)
    Библиотека кодирования : x264 core 146 r2538 121396c
    Настройки программы : cabac=1 / ref=4 / deblock=1:1:1 / analyse=0x3:0x133 / me=umh / subme=11 / psy=1 / psy_rd=1.00:0.00 / mixed_ref=1 / me_range=32 / chroma_me=1 / trellis=2 / 8x8dct=1 / cqm=0 / deadzone=21,11 / fast_pskip=0 / chroma_qp_offset=-2 / threads=12 / lookahead_threads=2 / sliced_threads=0 / nr=0 / decimate=0 / interlaced=0 / bluray_compat=0 / constrained_intra=0 / bframes=12 / b_pyramid=2 / b_adapt=2 / b_bias=0 / direct=3 / weightb=1 / open_gop=0 / weightp=2 / keyint=240 / keyint_min=23 / scenecut=40 / intra_refresh=0 / rc=2pass / mbtree=0 / bitrate=13000 / ratetol=1.0 / qcomp=0.60 / qpmin=0 / qpmax=69 / qpstep=4 / cplxblur=20.0 / qblur=0.5 / ip_ratio=1.40 / pb_ratio=1.30 / aq=3:0.80
    Язык : English
    Default : Нет
    Forced : Нет

    Аудио #1
    Идентификатор : 2
    Формат : AC-3
    Формат/Информация : Audio Coding 3
    Расширение режима : CM (complete main)
    Параметр Endianness формата : Big
    Идентификатор кодека : A_AC3
    Продолжительность : 1 ч. 24 м.
    Вид битрейта : Постоянный
    Битрейт : 192 Кбит/сек
    Каналы : 2 канала
    Расположение каналов : Front: L R
    Частота : 48,0 КГц
    Частота кадров : 31,250 кадров/сек (1536 spf)
    Метод сжатия : С потерями
    Размер потока : 116 Мбайт (1%)
    Заголовок : MVO ВГТРК
    Язык : Russian
    Default : Нет
    Forced : Нет

    Аудио #2
    Идентификатор : 3
    Формат : AC-3
    Формат/Информация : Audio Coding 3
    Расширение режима : CM (complete main)
    Параметр Endianness формата : Big
    Идентификатор кодека : A_AC3
    Продолжительность : 1 ч. 24 м.
    Вид битрейта : Постоянный
    Битрейт : 192 Кбит/сек
    Каналы : 2 канала
    Расположение каналов : Front: L R
    Частота : 48,0 КГц
    Частота кадров : 31,250 кадров/сек (1536 spf)
    Метод сжатия : С потерями
    Размер потока : 116 Мбайт (1%)
    Заголовок : MVOL Media Lime
    Язык : Russian
    Default : Нет
    Forced : Нет

    Аудио #3
    Идентификатор : 4
    Формат : AC-3
    Формат/Информация : Audio Coding 3
    Расширение режима : CM (complete main)
    Параметр Endianness формата : Big
    Идентификатор кодека : A_AC3
    Продолжительность : 1 ч. 24 м.
    Вид битрейта : Постоянный
    Битрейт : 448 Кбит/сек
    Каналы : 6 каналов
    Расположение каналов : Front: L C R, Side: L R, LFE
    Частота : 48,0 КГц
    Частота кадров : 31,250 кадров/сек (1536 spf)
    Метод сжатия : С потерями
    Размер потока : 271 Мбайт (3%)
    Язык : English
    Default : Нет
    Forced : Нет

    Текст #1
    Идентификатор : 5
    Формат : UTF-8
    Идентификатор кодека : S_TEXT/UTF8
    Идентификатор кодека/Информация : UTF-8 Plain Text
    Язык : Russian
    Default : Нет
    Forced : Нет

    Текст #2
    Идентификатор : 6
    Формат : UTF-8
    Идентификатор кодека : S_TEXT/UTF8
    Идентификатор кодека/Информация : UTF-8 Plain Text
    Язык : English
    Default : Нет
    Forced : Нет
    Свернуть


    [img]http://s019.radikal.ru/i622/1709/db/bb7a7471e613.png[/img][img]http://s018.radikal.ru/i519/1709/85/4ba67b0d89bc.png[/img][img]http://s019.radikal.ru/i624/1709/01/702354296e91.png[/img][img]http://s016.radikal.ru/i337/1709/47/5dd838a4a2f5.png[/img]
    [img]http://s018.radikal.ru/i521/1709/37/5ba668bbdd48.png[/img][img]http://s41.radikal.ru/i094/1709/9d/ccabf06867f4.png[/img][img]http://s019.radikal.ru/i624/1709/7e/d53efb799c7f.png[/img][img]http://s019.radikal.ru/i634/1709/c1/f279338bc48c.png[/img]
    Похожие раздачи Искать похожие
    Инструкция по скачиванию
     1  Качаем uTorrent версии 2.0 и выше
     2  После установки, жмем выше под постером на ссылку Скачать [MediaGet] или Скачать .torrent
     3  Открываем скачанный файл через соответствующий клиент: MediaGet или uTorrent
     4  Ждем пока подключатся участники
     5  Качаем
    Комментарии о  Глава 27 / Chapter 27 | BDRip 1080p 
    Ближайшее в кино
    Вверх