• Игры для PS4
  • Игры для PS3
  • Игры для XBOX360
  • Игры для PC
  • Игры для PS2
  • Игры для PSP
  • Для телефонов
  • Музыка
  • Книги/Журналы
  • Обои
  •  
    Опрос
    Откуда Вы о нас узнали?
      0
    • От знакомых2,1,false,300,full
    • Из социальных сетей2,2,false,300,full
    • Из поисковых систем2,3,false,300,full
    • Другое2,4,false,300,full
    Статистика
    Загрузка...
    Телетеррор / TerrorVision | BDRip 1080p
    Статус  Проверено
    В закладки
    Модератор: Max

    Телетеррор / TerrorVision | BDRip 1080p [Фильмы 1986] скачать торрентом/torrent бесплатно

    Год выхода
    Язык
    Закачал
    Max | 19 сентября 2017 в 20ч 44м 44с
    Раздел
    Отзывов
    0
    Раздают: 1 Качают: 0 Скачали: 1 Размер: 6.31 GB
    Инфо о раздаче | Благодарности |
    0/5
    0
    0 5 0
    Поддержи нас — расскажи друзьям!
    Orbitum
    Новый интернет-браузер Быстрее загружает сайты Экономит интернет—трафик Меняет оформление страницы ВК Блокирует всю рекламу на сайтах Загружает торренты как

    µTorrent

    клиент
    Объеденяет все твои чаты из соц. сетей в один Проигрывает твою музыку не заходя во ВКонтакте
    Скачать и многое другое... Подробности на сайте производителя
    Название: Телетеррор
    Оригинальное название: TerrorVision
    Год выхода: 1986

    Страна: США
    Студия: Empire Pictures, Altair Productions, Lexyn Productions
    Продолжительность: 01:25:09
    Жанр: ужасы, фантастика, комедия, семейный

    Режиссер: Тед Николау
    В ролях: Дайан Франклин, Геррит Грэм, Мэри Воронов, Чед Аллен, Джон Гриз, Берт Ремсен, Алехандро Рей, Рэнди Брукс, Дженнифер Ричардс, Сонни Карл Дэвис, ...

    Перевод:
    - Профессиональный (двуголосый, закадровый) НТВ+
    - Авторский (одноголосый, закадровый) Котов Вячеслав Олегович

    О фильме: Инопланетная цивилизация изобретает идеальный способ избавления от отходов — мусор посредством определённых манипуляций трансформируется в энергию и выбрасывается прямо в космос. Тем временем на Земле семья Путтерманов ставит себе спутниковую тарелку, в которую вскоре и попадает сгусток той самой энергии. В итоге новым жильцом в доме Путтерманов становится агрессивный инопланетный мусорный монстр…



    Кодек: x264
    Качество: BDRip 1080p
    Видео: 1920x1040, 10000 kbps, 23,976 fps
    Аудио #1: AC-3, 2 ch, 192 kbps (Rus) - DVO НТВ+
    Аудио #2: AC-3, 2 ch, 192 kbps (Rus) - AVO Котов Вячеслав Олегович (mupoxa)
    Аудио #3: AC-3, 2 ch, 224 kbps (Eng)
    Субтитры: английские

    Дополнительная информация
    За исходник спасибо - Mirmekiy


    MediaInfo

    x264 [info]: frame I:765   Avg QP:16.49  size:148348
    x264 [info]: frame P:23820 Avg QP:18.95  size: 76562
    x264 [info]: frame B:97888 Avg QP:20.87  size: 45400
    x264 [info]: consecutive B-frames:  1.5%  1.8%  5.9% 10.1% 11.8% 53.9%  6.9%  1.7%  3.6%  1.2%  1.5%

    Общее
    Уникальный идентификатор : 220533974571404081882433413787898529544 (0xA5E94C6CFF87DB7A83E31BCA679AC708)
    Полное имя : Телетеррор (TerrorVision) 1986 BDRip 1080p.mkv
    Формат : Matroska
    Версия формата : Version 2
    Размер файла : 6,31 Гбайт
    Продолжительность : 1 ч. 25 м.
    Общий поток : 10,6 Мбит/сек
    Дата кодирования : UTC 2017-09-18 10:20:27
    Программа кодирования : mkvmerge v4.0.0 ("The Stars were mine") сборка от Jun 6 2010 16:18:42
    Библиотека кодирования : libebml v1.0.0 + libmatroska v1.0.0

    Видео
    Идентификатор : 1
    Формат : AVC
    Формат/Информация : Advanced Video Codec
    Профиль формата : High@L4.1
    Параметр CABAC формата : Да
    Параметр ReFrames формата : 4 кадра
    Идентификатор кодека : V_MPEG4/ISO/AVC
    Продолжительность : 1 ч. 25 м.
    Битрейт : 10000 Кбит/сек
    Ширина : 1920 пикселей
    Высота : 1040 пикселей
    Соотношение сторон : 1,85:1
    Режим частоты кадров : Постоянный
    Частота кадров : 23,976 (24000/1001) кадра/сек
    Цветовое пространство : YUV
    Субдискретизация насыщенности : 4:2:0
    Битовая глубина : 8 бит
    Тип развёртки : Прогрессивная
    Бит/(Пиксели*Кадры) : 0.209
    Размер потока : 5,82 Гбайт (92%)
    Библиотека кодирования : x264 core 146 r2538 121396c
    Настройки программы : cabac=1 / ref=4 / deblock=1:-3:-3 / analyse=0x3:0x133 / me=umh / subme=11 / psy=1 / psy_rd=1.00:0.00 / mixed_ref=1 / me_range=32 / chroma_me=1 / trellis=2 / 8x8dct=1 / cqm=0 / deadzone=21,11 / fast_pskip=0 / chroma_qp_offset=-2 / threads=12 / lookahead_threads=2 / sliced_threads=0 / nr=0 / decimate=0 / interlaced=0 / bluray_compat=0 / constrained_intra=0 / bframes=10 / b_pyramid=2 / b_adapt=2 / b_bias=0 / direct=3 / weightb=1 / open_gop=0 / weightp=2 / keyint=240 / keyint_min=23 / scenecut=40 / intra_refresh=0 / rc=2pass / mbtree=0 / bitrate=10000 / ratetol=1.0 / qcomp=0.60 / qpmin=0 / qpmax=69 / qpstep=4 / cplxblur=20.0 / qblur=0.5 / ip_ratio=1.40 / pb_ratio=1.30 / aq=1:0.80
    Язык : English
    Default : Нет
    Forced : Нет

    Аудио #1
    Идентификатор : 2
    Формат : AC-3
    Формат/Информация : Audio Coding 3
    Расширение режима : CM (complete main)
    Параметр Endianness формата : Big
    Идентификатор кодека : A_AC3
    Продолжительность : 1 ч. 25 м.
    Вид битрейта : Постоянный
    Битрейт : 192 Кбит/сек
    Каналы : 2 канала
    Расположение каналов : Front: L R
    Частота : 48,0 КГц
    Частота кадров : 31,250 кадров/сек (1536 spf)
    Метод сжатия : С потерями
    Размер потока : 117 Мбайт (2%)
    Заголовок : DVO НТВ+
    Язык : Russian
    Default : Нет
    Forced : Нет

    Аудио #2
    Идентификатор : 3
    Формат : AC-3
    Формат/Информация : Audio Coding 3
    Расширение режима : CM (complete main)
    Параметр Endianness формата : Big
    Идентификатор кодека : A_AC3
    Продолжительность : 1 ч. 25 м.
    Вид битрейта : Постоянный
    Битрейт : 192 Кбит/сек
    Каналы : 2 канала
    Расположение каналов : Front: L R
    Частота : 48,0 КГц
    Частота кадров : 31,250 кадров/сек (1536 spf)
    Метод сжатия : С потерями
    Размер потока : 117 Мбайт (2%)
    Заголовок : AVO Котов Вячеслав Олегович (mupoxa)
    Язык : Russian
    Default : Нет
    Forced : Нет

    Аудио #3
    Идентификатор : 4
    Формат : AC-3
    Формат/Информация : Audio Coding 3
    Расширение режима : CM (complete main)
    Параметр Endianness формата : Big
    Идентификатор кодека : A_AC3
    Продолжительность : 1 ч. 25 м.
    Вид битрейта : Постоянный
    Битрейт : 224 Кбит/сек
    Каналы : 2 канала
    Расположение каналов : Front: L R
    Частота : 48,0 КГц
    Частота кадров : 31,250 кадров/сек (1536 spf)
    Метод сжатия : С потерями
    Размер потока : 136 Мбайт (2%)
    Язык : English
    Default : Нет
    Forced : Нет

    Текст
    Идентификатор : 5
    Формат : UTF-8
    Идентификатор кодека : S_TEXT/UTF8
    Идентификатор кодека/Информация : UTF-8 Plain Text
    Язык : English
    Default : Нет
    Forced : Нет


    [img]http://s016.radikal.ru/i337/1709/3f/ac11e0d6015e.png[/img][img]http://s014.radikal.ru/i328/1709/82/b9caad1d2eb9.png[/img][img]http://s03.radikal.ru/i176/1709/61/2e0c3d78c1e0.png[/img][img]http://s014.radikal.ru/i329/1709/43/4d935060a6bd.png[/img]
    [img]http://s019.radikal.ru/i610/1709/6e/1679e0944eb2.png[/img][img]http://s019.radikal.ru/i605/1709/39/b5d1f21ba3b4.png[/img][img]http://s019.radikal.ru/i623/1709/f7/9ced590c5dbc.png[/img][img]http://s018.radikal.ru/i513/1709/f7/b29471562c73.png[/img]
    Еще похожие »

    Как скачать?
    1. Качаем UTorrent версии 2.0 и выше отсюда
    2. После установки, жмем на ссылку Скачать торрент.
    3. Открываем его через utorrent.
    4. Ждем пока подключатся участники.
    5. Качаем.


    Комментарии о Телетеррор / TerrorVision | BDRip 1080p
    Добавлять комментарии могут только зарегистрированные пользователи

    Зарегистрироваться или Войти


    Ближайшее в кино
    • Аллилуйя! дата выхода 13 ноября 2018Аллилуйя!
      Дата выхода: 13 ноября 2018
    • 1199695|Coldplay: A Head Full of Dreams|14 ноября 2018|200|300Coldplay: A Head Full of Dreams
      Дата выхода: 14 ноября 2018
    • 843479|Фантастические твари: Преступления Грин-де-Вальда|15 ноября 2018|200|300Фантастические твари: Преступления Грин-де-Вальда
      Дата выхода: 15 ноября 2018
    • 1070264|Догмэн|15 ноября 2018|200|300Догмэн
      Дата выхода: 15 ноября 2018
    • 1068448|Оцепеневшие от страха|15 ноября 2018|200|300Оцепеневшие от страха
      Дата выхода: 15 ноября 2018
    • 1065878|Холодная война|15 ноября 2018|200|300Холодная война
      Дата выхода: 15 ноября 2018
    • 933787|Не чужие|15 ноября 2018|200|300Не чужие
      Дата выхода: 15 ноября 2018
    • 1045040|Облепиховое лето|15 ноября 2018|200|300Облепиховое лето
      Дата выхода: 15 ноября 2018
    • 1085625|Соната|15 ноября 2018|200|300Соната
      Дата выхода: 15 ноября 2018
    • 1174349|Безумие Георга III|20 ноября 2018|200|300Безумие Георга III
      Дата выхода: 20 ноября 2018
    • 7226|Догвилль|22 ноября 2018|200|300Догвилль
      Дата выхода: 22 ноября 2018
    • 1009784|Апгрейд|22 ноября 2018|200|300Апгрейд
      Дата выхода: 22 ноября 2018
    • 988782|Ральф против интернета|22 ноября 2018|200|300Ральф против интернета
      Дата выхода: 22 ноября 2018
    • 965901|Вдовы|22 ноября 2018|200|300Вдовы
      Дата выхода: 22 ноября 2018
    • 1011685|Нация убийц|22 ноября 2018|200|300Нация убийц
      Дата выхода: 22 ноября 2018
    Вверх