• Игры для PS4
  • Игры для PS3
  • Игры для XBOX360
  • Игры для PC
  • Игры для PS2
  • Игры для PSP
  • Для телефонов
  • Музыка
  • Книги/Журналы
  • Обои
  •  
    Опрос
    Удобен ли сайт в использовании?
      0
    • Очень удобен, все понятно1,1,false,300,full
    • Удобен1,2,false,300,full
    • Средне1,3,false,300,full
    • Неудобен, трудно ориентироваться1,4,false,300,full
    • Совсем неудобен1,5,false,300,full
    Статистика
    Загрузка...
    Танцы в «Голубой игуане» / Dancing at the Blue Iguana | WEBRip 1080p
    Статус  Проверено
    В закладки
    Модератор: Max

    Танцы в «Голубой игуане» / Dancing at the Blue Iguana | WEBRip 1080p [Фильмы 2000] скачать торрентом/torrent бесплатно

    Год выхода
    Язык
    Закачал
    Max | 19 сентября 2017 в 22ч 38м 08с
    Раздел
    Отзывов
    0
    Раздают: 1 Качают: 0 Скачали: 1 Размер: 10.97 GB
    Инфо о раздаче | Благодарности |
    0/5
    0
    0 5 0
    Поддержи нас — расскажи друзьям!
    Orbitum
    Новый интернет-браузер Быстрее загружает сайты Экономит интернет—трафик Меняет оформление страницы ВК Блокирует всю рекламу на сайтах Загружает торренты как

    µTorrent

    клиент
    Объеденяет все твои чаты из соц. сетей в один Проигрывает твою музыку не заходя во ВКонтакте
    Скачать и многое другое... Подробности на сайте производителя
    Название: Смерть супергероя
    Оригинальное название: Dancing at the Blue Iguana
    Год выхода: 2000

    Страна: США
    Студия: Moonstone Entertainment, Bergman Lustig Productions, Dragon Pictures
    Продолжительность: 02:03:55
    Жанр: драма, детектив

    Режиссер: Майкл Рэдфорд
    В ролях: Владимир Машков, Дженнифер Тилли, Дэрил Ханна, Шейла Келли, Элиас Котеас, Роберт Уиздом, Кристин Бауэр, Шарлотта Айянна, Крис Хоган, Сандра О, Родни Роулэнд, ...

    Перевод:
    - Профессиональный (многоголосый, закадровый) CP-Digital
    - Субтитры

    О фильме: Закулисные будни пяти стриптизерок американского клуба однообразными не назовешь. Сексапильные соблазнительницы во время ночной смены, днем они живут обычными заботами, мечтая выбраться на «светлый путь», чтобы не скурвиться.
    У каждой из них свой шанс: Жасмин пишет стихи, в Ангел неистребим материнский инстинкт, Джо внезапно узнает, что беременна… А рядом, в мотеле, затаился киллер с охотничьим нюхом Машкова, который влюбился в одну из красоток…



    Кодек: x264
    Качество: WEBRip 1080p
    Видео: 1920x1080, 11500 kbps, 23,976 fps
    Аудио #1: AC-3, 6 ch, 448 kbps (Rus) - MVO CP-Digital
    Аудио #2: AC-3, 6 ch, 448 kbps (Eng)
    Субтитры: русские, английские

    MediaInfo
    Общее
    Уникальный идентификатор : 226904227336466275005307072607381639190 (0xAAB42A22CD499EDB9EA0649F90105016)
    Полное имя : Танцы в «Голубой игуане» (Dancing at the Blue Iguana) 2000 WEBRip 1080p.mkv
    Формат : Matroska
    Версия формата : Version 2
    Размер файла : 11,0 Гбайт
    Продолжительность : 2 ч. 3 м.
    Режим общего битрейта : Переменный
    Общий поток : 12,7 Мбит/сек
    Дата кодирования : UTC 2017-09-18 11:18:03
    Программа кодирования : mkvmerge v4.0.0 ("The Stars were mine") сборка от Jun 6 2010 16:18:42
    Библиотека кодирования : libebml v1.0.0 + libmatroska v1.0.0

    Видео
    Идентификатор : 1
    Формат : AVC
    Формат/Информация : Advanced Video Codec
    Профиль формата : High@L4
    Параметр CABAC формата : Да
    Параметр ReFrames формата : 4 кадра
    Идентификатор кодека : V_MPEG4/ISO/AVC
    Продолжительность : 2 ч. 3 м.
    Вид битрейта : Переменный
    Битрейт : 11,5 Мбит/сек
    Максимальный битрейт : 15,0 Мбит/сек
    Ширина : 1920 пикселей
    Высота : 1080 пикселей
    Соотношение сторон : 16:9
    Режим частоты кадров : Постоянный
    Частота кадров : 23,976 (24000/1001) кадра/сек
    Цветовое пространство : YUV
    Субдискретизация насыщенности : 4:2:0
    Битовая глубина : 8 бит
    Тип развёртки : Прогрессивная
    Бит/(Пиксели*Кадры) : 0.232
    Размер потока : 9,98 Гбайт (91%)
    Библиотека кодирования : x264 core 148 r2623 d5b2374
    Настройки программы : cabac=1 / ref=4 / deblock=1:-1:-1 / analyse=0x3:0x133 / me=umh / subme=9 / psy=1 / psy_rd=1.00:0.15 / mixed_ref=1 / me_range=24 / chroma_me=1 / trellis=2 / 8x8dct=1 / cqm=0 / deadzone=21,11 / fast_pskip=1 / chroma_qp_offset=-3 / threads=34 / lookahead_threads=5 / sliced_threads=0 / nr=150 / decimate=1 / interlaced=0 / bluray_compat=0 / constrained_intra=0 / bframes=8 / b_pyramid=2 / b_adapt=2 / b_bias=0 / direct=3 / weightb=1 / open_gop=0 / weightp=2 / keyint=120 / keyint_min=61 / scenecut=0 / intra_refresh=0 / rc_lookahead=120 / rc=crf / mbtree=1 / crf=18.0 / qcomp=0.60 / qpmin=0 / qpmax=69 / qpstep=4 / vbv_maxrate=15000 / vbv_bufsize=31250 / crf_max=0.0 / nal_hrd=vbr / filler=0 / ip_ratio=1.40 / aq=3:1.00
    Язык : English
    Default : Нет
    Forced : Нет
    Цветовой диапазон : Limited
    Основные цвета : BT.709
    Характеристики трансфера : BT.709
    Коэффициенты матрицы : BT.709

    Аудио #1
    Идентификатор : 2
    Формат : AC-3
    Формат/Информация : Audio Coding 3
    Расширение режима : CM (complete main)
    Параметр Endianness формата : Big
    Идентификатор кодека : A_AC3
    Продолжительность : 2 ч. 3 м.
    Вид битрейта : Постоянный
    Битрейт : 448 Кбит/сек
    Каналы : 6 каналов
    Расположение каналов : Front: L C R, Side: L R, LFE
    Частота : 48,0 КГц
    Частота кадров : 31,250 кадров/сек (1536 spf)
    Метод сжатия : С потерями
    Размер потока : 397 Мбайт (4%)
    Заголовок : MVO CP-Digital
    Язык : Russian
    Default : Нет
    Forced : Нет

    Аудио #2
    Идентификатор : 3
    Формат : AC-3
    Формат/Информация : Audio Coding 3
    Расширение режима : CM (complete main)
    Параметр Endianness формата : Big
    Идентификатор кодека : A_AC3
    Продолжительность : 2 ч. 3 м.
    Вид битрейта : Постоянный
    Битрейт : 448 Кбит/сек
    Каналы : 6 каналов
    Расположение каналов : Front: L C R, Side: L R, LFE
    Частота : 48,0 КГц
    Частота кадров : 31,250 кадров/сек (1536 spf)
    Метод сжатия : С потерями
    Размер потока : 397 Мбайт (4%)
    Язык : English
    Default : Нет
    Forced : Нет

    Текст #1
    Идентификатор : 4
    Формат : UTF-8
    Идентификатор кодека : S_TEXT/UTF8
    Идентификатор кодека/Информация : UTF-8 Plain Text
    Язык : Russian
    Default : Нет
    Forced : Нет

    Текст #2
    Идентификатор : 5
    Формат : UTF-8
    Идентификатор кодека : S_TEXT/UTF8
    Идентификатор кодека/Информация : UTF-8 Plain Text
    Язык : English
    Default : Нет
    Forced : Нет


    [img]http://s019.radikal.ru/i619/1709/d4/495e12ef4c38.png[/img][img]http://s019.radikal.ru/i631/1709/d1/7d1233856136.png[/img][img]http://s16.radikal.ru/i191/1709/8b/50d5ebd725df.png[/img][img]http://s019.radikal.ru/i631/1709/7a/38b9a63d37bd.png[/img]
    [img]http://s019.radikal.ru/i635/1709/8b/f74ebe251bef.png[/img][img]http://s018.radikal.ru/i512/1709/62/abb5ce360490.png[/img][img]http://s012.radikal.ru/i320/1709/b3/bb10be145857.png[/img][img]http://s019.radikal.ru/i603/1709/c7/d65c357adca9.png[/img]
    Еще похожие »

    Как скачать?
    1. Качаем UTorrent версии 2.0 и выше отсюда
    2. После установки, жмем на ссылку Скачать торрент.
    3. Открываем его через utorrent.
    4. Ждем пока подключатся участники.
    5. Качаем.


    Комментарии о Танцы в «Голубой игуане» / Dancing at the Blue Iguana | WEBRip 1080p
    Добавлять комментарии могут только зарегистрированные пользователи

    Зарегистрироваться или Войти


    Ближайшее в кино
    • Безумие Георга III дата выхода 20 ноября 2018Безумие Георга III
      Дата выхода: 20 ноября 2018
    • 7226|Догвилль|22 ноября 2018|200|300Догвилль
      Дата выхода: 22 ноября 2018
    • 1009784|Апгрейд|22 ноября 2018|200|300Апгрейд
      Дата выхода: 22 ноября 2018
    • 988782|Ральф против интернета|22 ноября 2018|200|300Ральф против интернета
      Дата выхода: 22 ноября 2018
    • 965901|Вдовы|22 ноября 2018|200|300Вдовы
      Дата выхода: 22 ноября 2018
    • 1011685|Нация убийц|22 ноября 2018|200|300Нация убийц
      Дата выхода: 22 ноября 2018
    • 891414|Жена|22 ноября 2018|200|300Жена
      Дата выхода: 22 ноября 2018
    • 934207|Мотылёк|22 ноября 2018|200|300Мотылёк
      Дата выхода: 22 ноября 2018
    • 1044912|Вечерняя школа|22 ноября 2018|200|300Вечерняя школа
      Дата выхода: 22 ноября 2018
    • 1036188|Быть Астрид Линдгрен|22 ноября 2018|200|300Быть Астрид Линдгрен
      Дата выхода: 22 ноября 2018
    • 1048852|Помешанный на времени|22 ноября 2018|200|300Помешанный на времени
      Дата выхода: 22 ноября 2018
    • 1049775|Подбросы|22 ноября 2018|200|300Подбросы
      Дата выхода: 22 ноября 2018
    • 1108741|Я — миллиардер|22 ноября 2018|200|300Я — миллиардер
      Дата выхода: 22 ноября 2018
    • 1118041|Три лица|22 ноября 2018|200|300Три лица
      Дата выхода: 22 ноября 2018
    • 1209190|МУЛЬТ в кино. Выпуск 85. Мамин праздник|24 ноября 2018|200|300МУЛЬТ в кино. Выпуск 85. Мамин праздник
      Дата выхода: 24 ноября 2018
    Вверх