• Игры для PS4
  • Игры для PS3
  • Игры для XBOX360
  • Игры для PC
  • Игры для PS2
  • Игры для PSP
  • Для телефонов
  • Музыка
  • Книги/Журналы
  • Обои
  •  
    Опрос
    Удобен ли сайт в использовании?
      0
    • Очень удобен, все понятно1,1,false,300,full
    • Удобен1,2,false,300,full
    • Средне1,3,false,300,full
    • Неудобен, трудно ориентироваться1,4,false,300,full
    • Совсем неудобен1,5,false,300,full
    Статистика
    Загрузка...
    Пророк / Un prophete | BDRip 1080p
    Статус  Проверено
    В закладки
    Модератор: Max

    Пророк / Un prophete | BDRip 1080p [Фильмы 2009] скачать торрентом/torrent бесплатно

    Год выхода
    Категории
    Язык
    Закачал
    Max | 19 сентября 2017 в 22ч 38м 32с
    Раздел
    Отзывов
    0
    Раздают: 1 Качают: 0 Скачали: 1 Размер: 19.25 GB
    Инфо о раздаче | Благодарности |
    0/5
    0
    0 5 0
    Поддержи нас — расскажи друзьям!
    Orbitum
    Новый интернет-браузер Быстрее загружает сайты Экономит интернет—трафик Меняет оформление страницы ВК Блокирует всю рекламу на сайтах Загружает торренты как

    µTorrent

    клиент
    Объеденяет все твои чаты из соц. сетей в один Проигрывает твою музыку не заходя во ВКонтакте
    Скачать и многое другое... Подробности на сайте производителя
    Информация о фильме
    Название: Пророк
    Оригинальное название: Un prophete
    Год выхода: 2009
    Жанр: Драма, криминал
    Режиссер: Жак Одиар
    В ролях: Тахар Рахим, Нильс Ареструп, Адель Беншериф, Хайсем Якуби, Реда Катеб, Жан-Филипп Риччи, Жиль Коэн, Антуан Баслер, Лейла Бехти, Пьер Леччия, Фуед Насса, Жан-Эмманюэль Паньи, Фридерик Грациани, Слиман Дази, Рабах Лусиф, Серж Бутлерофф, Эрве Темиме

    О фильме:
    Приговоренный к шести годам тюрьмы, Малик Эль Джебена кажется на фоне других заключенных самым «зеленым» и самым уязвимым. Ему 19 лет. Он не умеет ни писать, ни читать. За стенами тюрьмы у него нет близких. Все меняется, когда Лучано, лидер авторитетной банды корсиканцев, решает поручить Малику ряд опасных и рискованных миссий… Выполнение любой из этих «миссий» под прессингом корсиканцев могло бы сломить кого угодно, но не его. Каждое задание закаляет Малика. Он быстро учится жизни в новом для себя мире. Завоевывает доверие корсиканцев и мусульман. И вскоре начинает вынашивать собственные дерзкие планы…



    Страна: Франция, Италия
    Студия: BIM Distribuzione, Chic Films, Page 114, Why Not Productions
    Продолжительность: 02:35:04
    Перевод:
    1: Дубляж
    2: Профессиональный многоголосый закадровый
    3: Украинский: профессиональный многоголосый закадровый

    MediaInfo


    Общее
    Уникальный идентификатор                 : 254558392750065535452800479651480265167 (0xBF8229C22EC968A1B63AE8DBDA58E1CF)
    Полное имя                               : D:ФільмиUn.prophete.(2009).x264.BDRip. 1080p.2xRus.Ukr.Fra.mkv
    Формат                                   : Matroska
    Версия формата                           : Version 4 / Version 2
    Размер файла                             : 19,2 Гбайт
    Продолжительность                        : 2 ч. 35 м.
    Общий поток                              : 17,8 Мбит/сек
    Название фильма                          : Un prophete (2009) - Release for HDCLUB
    Дата кодирования                         : UTC 2017-09-19 17:25:17
    Программа кодирования                    : mkvmerge v7.0.0 ("Where We Going") 32bit built on Jun  9 2014 15:08:34
    Библиотека кодирования                   : libebml v1.3.0 + libmatroska v1.4.1

    Видео
    Идентификатор                            : 1
    Формат                                   : AVC
    Формат/Информация                        : Advanced Video Codec
    Профиль формата                          : High@L4.1
    Параметр CABAC формата                   : Да
    Параметр RefFrames формата               : 4 кадра
    Идентификатор кодека                     : V_MPEG4/ISO/AVC
    Продолжительность                        : 2 ч. 35 м.
    Битрейт                                  : 14,6 Мбит/сек
    Ширина                                   : 1920 пикселей
    Высота                                   : 1036 пикселей
    Соотношение сторон                       : 1,85:1
    Режим частоты кадров                     : Постоянный
    Частота кадров                           : 24,000 кадра/сек
    Цветовое пространство                    : YUV
    Субдискретизация насыщенности            : 4:2:0
    Битовая глубина                          : 8 бит
    Тип развёртки                            : Прогрессивная
    Бит/(Пиксели*Кадры)                      : 0.306
    Размер потока                            : 15,8 Гбайт (82%)
    Заголовок                                : Release for HDCLUB
    Библиотека кодирования                   : x264 core 85 r1442kGIT 781d300
    Настройки программы                      : cabac=1 / ref=4 / deblock=1:-3:-3 / analyse=0x3:0x113 / me=umh / subme=10 / psy=1 / psy_rd=1.00:0.00 / mixed_ref=0 / me_range=64 / chroma_me=1 / trellis=2 / 8x8dct=1 / cqm=0 / deadzone=21,11 / fast_pskip=0 / chroma_qp_offset=-2 / threads=12 / sliced_threads=0 / nr=0 / decimate=0 / mbaff=0 / interlaced=0 / constrained_intra=0 / bframes=8 / b_pyramid=2 / b_adapt=2 / b_bias=0 / direct=3 / wpredb=1 / wpredp=2 / keyint=250 / keyint_min=25 / scenecut=40 / intra_refresh=0 / rc_lookahead=100 / rc=2pass / mbtree=1 / bitrate=14607 / ratetol=1.0 / qcomp=0.60 / qpmin=10 / qpmax=51 / qpstep=4 / cplxblur=20.0 / qblur=0.5 / vbv_maxrate=40000 / vbv_bufsize=40000 / ip_ratio=1.40 / aq=1:0.80 / pulldown=0 / nal_hrd=0
    Язык                                     : French
    Default                                  : Да
    Forced                                   : Нет

    Аудио #1
    Идентификатор                            : 2
    Формат                                   : DTS
    Формат/Информация                        : Digital Theater Systems
    Режим                                    : 16
    Параметр Endianness формата              : Big
    Идентификатор кодека                     : A_DTS
    Продолжительность                        : 2 ч. 35 м.
    Вид битрейта                             : Постоянный
    Битрейт                                  : 755 Кбит/сек
    Каналы                                   : 6 каналов
    Расположение каналов                     : Front: L C R, Side: L R, LFE
    Частота                                  : 48,0 КГц
    Частота кадров                           : 93,750 кадра/сек (512 SPF)
    Битовая глубина                          : 24 бит
    Метод сжатия                             : С потерями
    Размер потока                            : 837 Мбайт (4%)
    Заголовок                                : DTS 5.1 768 Kbps [Дубляж, R5]
    Язык                                     : Russian
    Default                                  : Нет
    Forced                                   : Нет

    Аудио #2
    Идентификатор                            : 3
    Формат                                   : AC-3
    Формат/Информация                        : Audio Coding 3
    Параметр Endianness формата              : Big
    Идентификатор кодека                     : A_AC3
    Продолжительность                        : 2 ч. 35 м.
    Вид битрейта                             : Постоянный
    Битрейт                                  : 448 Кбит/сек
    Каналы                                   : 6 каналов
    Расположение каналов                     : Front: L C R, Side: L R, LFE
    Частота                                  : 48,0 КГц
    Частота кадров                           : 31,250 кадров/сек (1536 SPF)
    Битовая глубина                          : 16 бит
    Метод сжатия                             : С потерями
    Размер потока                            : 497 Мбайт (3%)
    Заголовок                                : AC3 5.1 448 Kbps [Многоголосый, R5]
    Язык                                     : Russian
    ServiceKind/String                       : Complete Main
    Default                                  : Нет
    Forced                                   : Нет

    Аудио #3
    Идентификатор                            : 4
    Формат                                   : AC-3
    Формат/Информация                        : Audio Coding 3
    Параметр Endianness формата              : Big
    Идентификатор кодека                     : A_AC3
    Продолжительность                        : 2 ч. 35 м.
    Вид битрейта                             : Постоянный
    Битрейт                                  : 448 Кбит/сек
    Каналы                                   : 6 каналов
    Расположение каналов                     : Front: L C R, Side: L R, LFE
    Частота                                  : 48,0 КГц
    Частота кадров                           : 31,250 кадров/сек (1536 SPF)
    Битовая глубина                          : 16 бит
    Метод сжатия                             : С потерями
    Размер потока                            : 497 Мбайт (3%)
    Заголовок                                : AC3 5.1 448 Kbps  - Двухголосый закадровый
    Язык                                     : Ukrainian
    ServiceKind/String                       : Complete Main
    Default                                  : Да
    Forced                                   : Да

    Аудио #4
    Идентификатор                            : 5
    Формат                                   : DTS
    Формат/Информация                        : Digital Theater Systems
    Режим                                    : 16
    Параметр Endianness формата              : Big
    Идентификатор кодека                     : A_DTS
    Продолжительность                        : 2 ч. 35 м.
    Вид битрейта                             : Постоянный
    Битрейт                                  : 1509 Кбит/сек
    Каналы                                   : 6 каналов
    Расположение каналов                     : Front: L C R, Side: L R, LFE
    Частота                                  : 48,0 КГц
    Частота кадров                           : 93,750 кадра/сек (512 SPF)
    Битовая глубина                          : 24 бит
    Метод сжатия                             : С потерями
    Размер потока                            : 1,63 Гбайт (8%)
    Заголовок                                : DTS 5.1 1536 Kbps [Оригинал]
    Язык                                     : French
    Default                                  : Нет
    Forced                                   : Нет

    Текст #1
    Идентификатор                            : 6
    Формат                                   : UTF-8
    Идентификатор кодека                     : S_TEXT/UTF8
    Идентификатор кодека/Информация          : UTF-8 Plain Text
    Продолжительность                        : 2 ч. 29 м.
    Битрейт                                  : 59 бит/сек
    ElementCount                             : 1363
    Размер потока                            : 65,6 Кбайт (0%)
    Язык                                     : Russian
    Default                                  : Нет
    Forced                                   : Нет

    Текст #2
    Идентификатор                            : 7
    Формат                                   : UTF-8
    Идентификатор кодека                     : S_TEXT/UTF8
    Идентификатор кодека/Информация          : UTF-8 Plain Text
    Продолжительность                        : 2 ч. 28 м.
    Битрейт                                  : 32 бит/сек
    ElementCount                             : 1027
    Размер потока                            : 35,4 Кбайт (0%)
    Язык                                     : English
    Default                                  : Нет
    Forced                                   : Нет

    Текст #3
    Идентификатор                            : 8
    Формат                                   : UTF-8
    Идентификатор кодека                     : S_TEXT/UTF8
    Идентификатор кодека/Информация          : UTF-8 Plain Text
    Продолжительность                        : 2 ч. 28 м.
    Битрейт                                  : 39 бит/сек
    ElementCount                             : 1092
    Размер потока                            : 43,3 Кбайт (0%)
    Язык                                     : Turkish
    Default                                  : Нет
    Forced                                   : Нет

    Текст #4
    Идентификатор                            : 9
    Формат                                   : UTF-8
    Идентификатор кодека                     : S_TEXT/UTF8
    Идентификатор кодека/Информация          : UTF-8 Plain Text
    Продолжительность                        : 2 ч. 28 м.
    Битрейт                                  : 33 бит/сек
    ElementCount                             : 1050
    Размер потока                            : 36,9 Кбайт (0%)
    Язык                                     : Polish
    Default                                  : Нет
    Forced                                   : Нет

    Меню
    00:00:00.000                             : en:00:00:00.000
    00:00:46.875                             : en:00:00:46.875
    00:04:49.000                             : en:00:04:49.000
    00:13:57.875                             : en:00:13:57.875
    00:23:55.000                             : en:00:23:55.000
    00:30:38.125                             : en:00:30:38.125
    00:38:26.000                             : en:00:38:26.000
    00:41:50.000                             : en:00:41:50.000
    00:48:12.000                             : en:00:48:12.000
    00:56:55.000                             : en:00:56:55.000
    01:03:17.000                             : en:01:03:17.000
    01:11:04.625                             : en:01:11:04.625
    01:21:03.083                             : en:01:21:03.083
    01:31:27.500                             : en:01:31:27.500
    01:41:11.000                             : en:01:41:11.000
    01:51:45.542                             : en:01:51:45.542
    01:57:20.000                             : en:01:57:20.000
    02:08:13.708                             : en:02:08:13.708
    02:15:38.792                             : en:02:15:38.792
    02:18:31.000                             : en:02:18:31.000
    02:22:13.583                             : en:02:22:13.583
    02:22:57.542                             : en:02:22:57.542
    02:28:47.625                             : en:02:28:47.625





    Файл
    Кодек: x.264
    Качество: BDRip 1080p
    Видео: 1920x1036 (1.85:1), 24.000 fps, AVC, ~14.6 Mbps, 0.306 bits/pixel
    Звук:
    #1: Russian, 48.0 KHz, DTS, 6 ch, 755 Kbps - DTS 5.1 768 Kbps [Дубляж, R5]
    #2: Russian, 48.0 KHz, AC3, 6 ch, 448 Kbps - AC3 5.1 448 Kbps [Многоголосый, R5]
    #3: Ukrainian, 48.0 KHz, AC3, 6 ch, 448 Kbps - AC3 5.1 448 Kbps  - Двухголосый закадровый
    #4: French, 48.0 KHz, DTS, 6 ch, 1510 Kbps - DTS 5.1 1536 Kbps [Оригинал]
    Субтитры: Russian, English, Turkish, Polish

    Скриншоты

    [img]http://i91.fastpic.ru/thumb/2017/0919/16/_2421099ab5c2d63bf1f575447ff59c16.jpeg[/img][img]http://i91.fastpic.ru/big/2017/0919/3f/cdec0a233757766b9ef3ee234a7a2b3f.png[/img][img]http://i91.fastpic.ru/big/2017/0919/0b/d2e61500a55c692495e314b363d2a90b.png[/img][img]http://i91.fastpic.ru/big/2017/0919/02/3268d0e716e81260493010a3faa3e002.png[/img][img]http://i91.fastpic.ru/big/2017/0919/66/24c9c0bdf40a1e552940307f74e6ca66.png[/img][img]http://i91.fastpic.ru/big/2017/0919/49/fbfe9b6e8508290a39f69606ff787749.png[/img]
    Еще похожие »

    Как скачать?
    1. Качаем UTorrent версии 2.0 и выше отсюда
    2. После установки, жмем на ссылку Скачать торрент.
    3. Открываем его через utorrent.
    4. Ждем пока подключатся участники.
    5. Качаем.


    Комментарии о Пророк / Un prophete | BDRip 1080p
    Добавлять комментарии могут только зарегистрированные пользователи

    Зарегистрироваться или Войти


    Ближайшее в кино
    • Аллилуйя! дата выхода 13 ноября 2018Аллилуйя!
      Дата выхода: 13 ноября 2018
    • 1199695|Coldplay: A Head Full of Dreams|14 ноября 2018|200|300Coldplay: A Head Full of Dreams
      Дата выхода: 14 ноября 2018
    • 843479|Фантастические твари: Преступления Грин-де-Вальда|15 ноября 2018|200|300Фантастические твари: Преступления Грин-де-Вальда
      Дата выхода: 15 ноября 2018
    • 1070264|Догмэн|15 ноября 2018|200|300Догмэн
      Дата выхода: 15 ноября 2018
    • 1068448|Оцепеневшие от страха|15 ноября 2018|200|300Оцепеневшие от страха
      Дата выхода: 15 ноября 2018
    • 1065878|Холодная война|15 ноября 2018|200|300Холодная война
      Дата выхода: 15 ноября 2018
    • 933787|Не чужие|15 ноября 2018|200|300Не чужие
      Дата выхода: 15 ноября 2018
    • 1045040|Облепиховое лето|15 ноября 2018|200|300Облепиховое лето
      Дата выхода: 15 ноября 2018
    • 1085625|Соната|15 ноября 2018|200|300Соната
      Дата выхода: 15 ноября 2018
    • 1174349|Безумие Георга III|20 ноября 2018|200|300Безумие Георга III
      Дата выхода: 20 ноября 2018
    • 7226|Догвилль|22 ноября 2018|200|300Догвилль
      Дата выхода: 22 ноября 2018
    • 1009784|Апгрейд|22 ноября 2018|200|300Апгрейд
      Дата выхода: 22 ноября 2018
    • 988782|Ральф против интернета|22 ноября 2018|200|300Ральф против интернета
      Дата выхода: 22 ноября 2018
    • 965901|Вдовы|22 ноября 2018|200|300Вдовы
      Дата выхода: 22 ноября 2018
    • 1011685|Нация убийц|22 ноября 2018|200|300Нация убийц
      Дата выхода: 22 ноября 2018
    Вверх