• Игры для PS4
  • Игры для PS3
  • Игры для XBOX360
  • Игры для PC
  • Игры для PS2
  • Игры для PSP
  • Для телефонов
  • Музыка
  • Книги/Журналы
  • Обои
  •  
    Опрос
    Удобен ли сайт в использовании?
      0
    • Очень удобен, все понятно1,1,false,300,full
    • Удобен1,2,false,300,full
    • Средне1,3,false,300,full
    • Неудобен, трудно ориентироваться1,4,false,300,full
    • Совсем неудобен1,5,false,300,full
    Статистика
    Загрузка...
    Сердцеедки / Heartbreakers | HDRip-AVC
    Статус  Проверено
    В закладки
    Модератор: Max

    Сердцеедки / Heartbreakers | HDRip-AVC [Фильмы 2001] скачать торрентом/torrent бесплатно

    Год выхода
    Язык
    Закачал
    Аноним | 19 сентября 2017 в 22ч 38м 44с
    Раздел
    Отзывов
    0
    Раздают: 20 Качают: 28 Скачали: 40 Размер: 746.43 MB
    Инфо о раздаче | Благодарности |
    0/5
    0
    0 5 0
    Поддержи нас — расскажи друзьям!
    Orbitum
    Новый интернет-браузер Быстрее загружает сайты Экономит интернет—трафик Меняет оформление страницы ВК Блокирует всю рекламу на сайтах Загружает торренты как

    µTorrent

    клиент
    Объеденяет все твои чаты из соц. сетей в один Проигрывает твою музыку не заходя во ВКонтакте
    Скачать и многое другое... Подробности на сайте производителя
    Информация о фильме
    Название: Сердцеедки
    Оригинальное название: Heartbreakers
    Год выхода: 2001
    Жанр:  мелодрама, комедия, криминал
    Режиссер: Дэвид Миркин
    В ролях: Сигурни Уивер, Дженнифер Лав Хьюитт, Джин Хэкмен, Рэй Лиотта, Джейсон Ли, Энн Бэнкрофт, Джеффри Джонс, Нора Данн, Хулио Оскар Мечосо, Рикки Джей

    О фильме :
    Очаровательная интриганка Макс Коннерс и ее прилежная ученица (она же — дочь) Пейдж — отличная команда. Некоторые матери учат своих дочерей музыке, танцам и этикету, а Макс передала Пейдж все, что узнала сама за многие годы об авантюрах, мошенничестве и обольщении. Отсутствие капитала, по их мнению, — лишь временное явление, легко поправимое при помощи мужчин. Ничего не подозревающие, хорошо обеспеченные жертвы быстро попадаются в коварные сети прекрасных обманщиц. Результат — легкая и беззаботная жизнь на деньги очередного одураченного простофили, лишившегося значительной части своих средств. И все было бы хорошо, но однажды Пейдж совершила роковую ошибку влюбившись на самом деле. Ведь женское сердце не спрашивая свою хозяйку, всегда ищет настоящую любовь. Много лет назад такую же ошибку совершила и Макс.



    Выпущено: США, Davis Entertainment, Metro-Goldwyn-Mayer
    Продолжительность: 02:03:29
    Перевод: Профессиональный (полное дублирование) R5

    Файл
    Формат: MKV
    Качество: HDRip-AVC
    Видео: MPEG-4 AVC, 752x324, ~ 771 Кбит/с
    Аудио: [img]http://i93.fastpic.ru/big/2017/0727/c0/4b72f0369a3393219ed5935e91fc15c0.gif[/img] AAC-LC, 2 ch, ~72 Кбит/с
    Субтитры: русские, английские

    MI
    Общее
    Уникальный идентификатор                 : 207725482057316473553809941489859879495 (0x9C4678FD02E40001ADE0215C3896E247)
    Полное имя                               : D:MOVIESHeartbreakers.2001.ExKinoRay.mkv
    Формат                                   : Matroska
    Версия формата                           : Version 4 / Version 2
    Размер файла                             : 746 Мбайт
    Продолжительность                        : 2 ч. 3 м.
    Общий поток                              : 845 Кбит/сек
    Дата кодирования                         : UTC 2017-09-19 18:51:23
    Программа кодирования                    : mkvmerge v15.0.0 ("Duel with the Devil") 64-bit
    Библиотека кодирования                   : libebml v1.3.5 + libmatroska v1.4.5

    Видео
    Идентификатор                            : 1
    Формат                                   : AVC
    Формат/Информация                        : Advanced Video Codec
    Профиль формата                          : High@L4.1
    Параметр CABAC формата                   : Да
    Параметр RefFrames формата               : 10 кадров
    Идентификатор кодека                     : V_MPEG4/ISO/AVC
    Продолжительность                        : 2 ч. 3 м.
    Битрейт                                  : 771 Кбит/сек
    Ширина                                   : 752 пикселя
    Высота                                   : 324 пикселя
    Соотношение сторон                       : 2,35:1
    Режим частоты кадров                     : Постоянный
    Частота кадров                           : 23,976 (24000/1001) кадра/сек
    Цветовое пространство                    : YUV
    Субдискретизация насыщенности            : 4:2:0
    Битовая глубина                          : 8 бит
    Тип развёртки                            : Прогрессивная
    Бит/(Пиксели*Кадры)                      : 0.132
    Размер потока                            : 681 Мбайт (91%)
    Библиотека кодирования                   : x264 core 152 r2851kMod ba24899
    Настройки программы                      : cabac=1 / ref=10 / deblock=1:-3:-3 / analyse=0x3:0x113 / me=umh / subme=11 / psy=1 / fade_compensate=0.00 / psy_rd=1.00:0.10 / mixed_ref=1 / me_range=32 / chroma_me=1 / trellis=2 / 8x8dct=1 / cqm=0 / deadzone=21,11 / fast_pskip=0 / chroma_qp_offset=-3 / threads=6 / lookahead_threads=1 / sliced_threads=0 / nr=0 / decimate=0 / interlaced=0 / bluray_compat=0 / constrained_intra=0 / bframes=10 / b_pyramid=2 / b_adapt=2 / b_bias=0 / direct=3 / weightb=1 / open_gop=0 / weightp=2 / keyint=240 / keyint_min=23 / scenecut=40 / intra_refresh=0 / rc_lookahead=40 / rc=2pass / mbtree=1 / bitrate=771 / ratetol=1.0 / qcomp=0.60 / qpmin=0 / qpmax=69 / qpstep=4 / cplxblur=20.0 / qblur=0.5 / vbv_maxrate=50000 / vbv_bufsize=62500 / nal_hrd=none / filler=0 / ip_ratio=1.40 / aq=3:1.00
    Default                                  : Да
    Forced                                   : Нет

    Аудио
    Идентификатор                            : 2
    Формат                                   : AAC
    Формат/Информация                        : Advanced Audio Codec
    Профиль формата                          : LC
    Идентификатор кодека                     : A_AAC
    Продолжительность                        : 2 ч. 3 м.
    Битрейт                                  : 72,0 Кбит/сек
    Каналы                                   : 2 канала
    Расположение каналов                     : Front: L R
    Частота                                  : 48,0 КГц
    Частота кадров                           : 46,875 кадров/сек (1024 SPF)
    Метод сжатия                             : С потерями
    Задержка видео                           : 9 мс.
    Размер потока                            : 63,6 Мбайт (9%)
    Default                                  : Да
    Forced                                   : Нет

    Текст #1
    Идентификатор                            : 3
    Формат                                   : UTF-8
    Идентификатор кодека                     : S_TEXT/UTF8
    Идентификатор кодека/Информация          : UTF-8 Plain Text
    Продолжительность                        : 1 ч. 57 м.
    Битрейт                                  : 91 бит/сек
    ElementCount                             : 1247
    Размер потока                            : 78,6 Кбайт (0%)
    Язык                                     : Russian
    Default                                  : Нет
    Forced                                   : Нет

    Текст #2
    Идентификатор                            : 4
    Формат                                   : UTF-8
    Идентификатор кодека                     : S_TEXT/UTF8
    Идентификатор кодека/Информация          : UTF-8 Plain Text
    Продолжительность                        : 1 ч. 57 м.
    Битрейт                                  : 59 бит/сек
    ElementCount                             : 1910
    Размер потока                            : 51,3 Кбайт (0%)
    Язык                                     : English
    Default                                  : Нет
    Forced                                   : Нет

    Меню
    00:00:00.000                             : en:Main Title / "I Do"
    00:07:58.266                             : en:Unzipped & Undone
    00:19:18.766                             : en:A Taxi Suituation
    00:22:33.266                             : en:The Fall Girl
    00:26:05.266                             : en:Big Fish & Salty Nuts
    00:31:22.766                             : en:Tensy Problems / Jack
    00:43:23.266                             : en:Getting Spiked
    00:52:30.766                             : en:Star Gazers /U.S.S.R.
    01:02:09.766                             : en:Lights & Meteors
    01:06:04.766                             : en:Hide & Seek
    01:09:49.266                             : en:Maid To Please
    01:12:44.266                             : en:Love & Con-Dropping
    01:16:33.766                             : en:For Her Own Good
    01:18:56.266                             : en:An Indecent Proposal
    01:23:13.766                             : en:Drop-Dead Gorgeous
    01:25:56.166                             : en:"I"ll Do Anything!"
    01:29:40.666                             : en:Strange Bedfellows
    01:35:57.166                             : en:Hooking Mr. $.15 Million
    01:41:24.166                             : en:"I Do" 2
    01:46:11.666                             : en:Getting Jacked Around
    01:51:42.166                             : en:"Love Is Pain!"
    01:54:15.166                             : en:A Fresh Start
    01:56:20.166                             : en:"A Respectable Life"
    01:57:44.166                             : en:My Name is Page"
    01:58:45.666                             : en:One Last Time
    01:59:35.666                             : en:End Credits


    Скриншоты
    [img]http://i91.fastpic.ru/big/2017/0919/3b/244fe3eb8a746b62be023802bce4753b.jpg[/img][img]http://i89.fastpic.ru/big/2017/0919/00/d6e6e548a76d5e9b34f0a75b7c6bd300.jpg[/img][img]http://i89.fastpic.ru/big/2017/0919/8a/bf385599b1e187a5cd9702992971228a.jpg[/img][img]http://i91.fastpic.ru/big/2017/0919/93/8699d833250a2751cd06a1b742780793.jpg[/img]

    [img]http://i91.fastpic.ru/big/2017/0919/9e/8b4de4ea0cc0c9a344f6fe09b56ce09e.jpg[/img][img]http://i89.fastpic.ru/big/2017/0919/47/cb7af8308a590fe1b795f7ceb4fd9147.jpg[/img][img]http://i93.fastpic.ru/big/2017/0919/75/029dff1e335d17d25040391e147a5975.jpg[/img][img]http://i91.fastpic.ru/big/2017/0919/51/f82f8f22b7d6a0c9229ec1274a354351.jpg[/img]
    Еще похожие »

    Как скачать?
    1. Качаем UTorrent версии 2.0 и выше отсюда
    2. После установки, жмем на ссылку Скачать торрент.
    3. Открываем его через utorrent.
    4. Ждем пока подключатся участники.
    5. Качаем.


    Комментарии о Сердцеедки / Heartbreakers | HDRip-AVC
    Добавлять комментарии могут только зарегистрированные пользователи

    Зарегистрироваться или Войти


    Ближайшее в кино
    • Безумие Георга III дата выхода 20 ноября 2018Безумие Георга III
      Дата выхода: 20 ноября 2018
    • 7226|Догвилль|22 ноября 2018|200|300Догвилль
      Дата выхода: 22 ноября 2018
    • 1009784|Апгрейд|22 ноября 2018|200|300Апгрейд
      Дата выхода: 22 ноября 2018
    • 988782|Ральф против интернета|22 ноября 2018|200|300Ральф против интернета
      Дата выхода: 22 ноября 2018
    • 965901|Вдовы|22 ноября 2018|200|300Вдовы
      Дата выхода: 22 ноября 2018
    • 1011685|Нация убийц|22 ноября 2018|200|300Нация убийц
      Дата выхода: 22 ноября 2018
    • 891414|Жена|22 ноября 2018|200|300Жена
      Дата выхода: 22 ноября 2018
    • 934207|Мотылёк|22 ноября 2018|200|300Мотылёк
      Дата выхода: 22 ноября 2018
    • 1044912|Вечерняя школа|22 ноября 2018|200|300Вечерняя школа
      Дата выхода: 22 ноября 2018
    • 1036188|Быть Астрид Линдгрен|22 ноября 2018|200|300Быть Астрид Линдгрен
      Дата выхода: 22 ноября 2018
    • 1048852|Помешанный на времени|22 ноября 2018|200|300Помешанный на времени
      Дата выхода: 22 ноября 2018
    • 1049775|Подбросы|22 ноября 2018|200|300Подбросы
      Дата выхода: 22 ноября 2018
    • 1108741|Я — миллиардер|22 ноября 2018|200|300Я — миллиардер
      Дата выхода: 22 ноября 2018
    • 1118041|Три лица|22 ноября 2018|200|300Три лица
      Дата выхода: 22 ноября 2018
    • 1209190|МУЛЬТ в кино. Выпуск 85. Мамин праздник|24 ноября 2018|200|300МУЛЬТ в кино. Выпуск 85. Мамин праздник
      Дата выхода: 24 ноября 2018
    Вверх