• Игры для PS4
  • Игры для PS3
  • Игры для XBOX360
  • Игры для PC
  • Игры для PS2
  • Игры для PSP
  • Для телефонов
  • Музыка
  • Книги / Журналы
  • Обои
  • Опрос
    Удобен ли сайт в использовании?
      0
    • Очень удобен, все понятно1,1,false,300,full
    • Удобен1,2,false,300,full
    • Средне1,3,false,300,full
    • Неудобен, трудно ориентироваться1,4,false,300,full
    • Совсем неудобен1,5,false,300,full
    Статистика
    Всего онлайн -
    Гостей -
    Пользователей -
    Короли трекера
    
    Благодарности () Закрыть
    Информация о фильме
    Название: Звездный десант: Вторжение
    Оригинальное название: Starship Troopers: Invasion
    Год выхода: 2012
    Жанр:  мультфильм, фантастика, боевик
    Режиссер: Синдзи Арамаки
    В ролях: Leraldo Anzaldua, Luci Christian, Melissa Davis, Justin Doran, David Matranga, Emily Neves, David Wald

    О фильме :
    Удалённый аванпост Федерации «Форт Кейси» подвергается атаке жуков. Базирующийся там корабль «Джон А. Уорден» должен как можно быстрее увезти выживших на Землю, заодно доставив собранные на «Форте Кейси» данные военной разведки. На помощь к уцелевшим спешит истребитель «Алесия», однако незадолго до запланированной встречи министр Паранормальных Боевых Действий Карл Дженкинс реквизирует «Джон А. Уорден» для какой-то секретной миссии и пропадает в ближайшей туманности. И бравым десантникам с «Алесии» приходится менять курс, ещё не зная, что эта спасательная миссия может закончиться очень печально.



    Выпущено: США, Япония, Sola Digital Arts, Stage 6 Films
    Продолжительность: 01:28:48
    Перевод: Профессиональный (многоголосый, закадровый)

    Файл
    Формат: MKV
    Качество: BDRip-AVC (BDRemux 1080p)
    Видео: MPEG-4 AVC, 736x416, ~ 1101 Кбит/с
    Аудио: [img]http://i93.fastpic.ru/big/2017/0727/c0/4b72f0369a3393219ed5935e91fc15c0.gif[/img] AAC-LC, 2 ch, ~72 Кбит/с
    Субтитры: Русские

    MI
    Общее
    Уникальный идентификатор : 208994293852093795958310186325600150070 (0x9D3AD63D58D66979A89C9E8F77ACA236)
    Полное имя : D:MOVIESStarship.Troopers.Invasion.2012.ExKinoRay.mkv
    Формат : Matroska
    Версия формата : Version 4 / Version 2
    Размер файла : 746 Мбайт
    Продолжительность : 1 ч. 28 м.
    Общий поток : 1175 Кбит/сек
    Дата кодирования : UTC 2017-09-20 05:18:47
    Программа кодирования : mkvmerge v15.0.0 ("Duel with the Devil") 64-bit
    Библиотека кодирования : libebml v1.3.5 + libmatroska v1.4.5

    Видео
    Идентификатор : 1
    Формат : AVC
    Формат/Информация : Advanced Video Codec
    Профиль формата : High@L4.1
    Параметр CABAC формата : Да
    Параметр RefFrames формата : 10 кадров
    Идентификатор кодека : V_MPEG4/ISO/AVC
    Продолжительность : 1 ч. 28 м.
    Битрейт : 1101 Кбит/сек
    Ширина : 736 пикселей
    Высота : 416 пикселей
    Соотношение сторон : 16:9
    Режим частоты кадров : Постоянный
    Частота кадров : 23,976 (24000/1001) кадра/сек
    Цветовое пространство : YUV
    Субдискретизация насыщенности : 4:2:0
    Битовая глубина : 8 бит
    Тип развёртки : Прогрессивная
    Бит/(Пиксели*Кадры) : 0.150
    Размер потока : 699 Мбайт (94%)
    Библиотека кодирования : x264 core 152 r2851kMod ba24899
    Настройки программы : cabac=1 / ref=10 / deblock=1:-2:-2 / analyse=0x3:0x113 / me=umh / subme=11 / psy=1 / fade_compensate=0.00 / psy_rd=1.00:0.02 / mixed_ref=1 / me_range=32 / chroma_me=1 / trellis=2 / 8x8dct=1 / cqm=0 / deadzone=21,11 / fast_pskip=0 / chroma_qp_offset=-3 / threads=6 / lookahead_threads=1 / sliced_threads=0 / nr=0 / decimate=0 / interlaced=0 / bluray_compat=0 / constrained_intra=0 / bframes=10 / b_pyramid=2 / b_adapt=2 / b_bias=0 / direct=3 / weightb=1 / open_gop=0 / weightp=2 / keyint=240 / keyint_min=23 / scenecut=40 / intra_refresh=0 / rc_lookahead=40 / rc=2pass / mbtree=1 / bitrate=1101 / ratetol=1.0 / qcomp=0.60 / qpmin=0 / qpmax=69 / qpstep=4 / cplxblur=20.0 / qblur=0.5 / vbv_maxrate=50000 / vbv_bufsize=62500 / nal_hrd=none / filler=0 / ip_ratio=1.40 / aq=3:1.00
    Default : Да
    Forced : Нет

    Аудио
    Идентификатор : 2
    Формат : AAC
    Формат/Информация : Advanced Audio Codec
    Профиль формата : LC
    Идентификатор кодека : A_AAC
    Продолжительность : 1 ч. 28 м.
    Битрейт : 72,0 Кбит/сек
    Каналы : 2 канала
    Расположение каналов : Front: L R
    Частота : 48,0 КГц
    Частота кадров : 46,875 кадров/сек (1024 SPF)
    Метод сжатия : С потерями
    Задержка видео : 9 мс.
    Размер потока : 45,7 Мбайт (6%)
    Default : Да
    Forced : Нет

    Текст
    Идентификатор : 3
    Формат : UTF-8
    Идентификатор кодека : S_TEXT/UTF8
    Идентификатор кодека/Информация : UTF-8 Plain Text
    Продолжительность : 1 ч. 24 м.
    Битрейт : 74 бит/сек
    ElementCount : 916
    Размер потока : 45,9 Кбайт (0%)
    Заголовок : Russkie
    Язык : Russian
    Default : Нет
    Forced : Нет

    Меню
    00:00:00.000 : en:Chapter 00
    00:06:01.611 : en:Chapter 01
    00:10:44.393 : en:Chapter 02
    00:16:59.309 : en:Chapter 03
    00:20:35.192 : en:Chapter 04
    00:26:48.440 : en:Chapter 05
    00:32:48.132 : en:Chapter 06
    00:39:01.797 : en:Chapter 07
    00:44:34.421 : en:Chapter 08
    00:51:01.516 : en:Chapter 09
    00:56:55.620 : en:Chapter 10
    01:00:33.755 : en:Chapter 11
    01:04:49.135 : en:Chapter 12
    01:08:09.168 : en:Chapter 13
    01:13:16.225 : en:Chapter 14
    01:18:14.189 : en:Chapter 15
    Свернуть


    Скриншоты
    [screen]http://i89.fastpic.ru/big/2017/0920/56/f1efc04f76cbcdbafdcdfbae17494956.jpg[/screen][screen]http://i89.fastpic.ru/big/2017/0920/8a/59fa70a2024a7effe81cd02fbbe1788a.jpg[/screen][screen]http://i91.fastpic.ru/big/2017/0920/d5/e36575085ef750adc62ca2a1810659d5.jpg[/screen][screen]http://i91.fastpic.ru/big/2017/0920/2f/58693e4c37c13aba30bd73312118a82f.jpg[/screen]

    [screen]http://i95.fastpic.ru/big/2017/0920/e0/48ff95a9d0d18620015219b21ea79ce0.jpg[/screen][screen]http://i89.fastpic.ru/big/2017/0920/26/c83abb3ff850a339631ea4ab96dddf26.jpg[/screen][screen]http://i89.fastpic.ru/big/2017/0920/e1/3bfc80d746a331a35b735b3583e24fe1.jpg[/screen][screen]http://i94.fastpic.ru/big/2017/0920/b9/1c11f3d77de7097d1f291439129f20b9.jpg[/screen]Свернуть
    Инструкция по скачиванию
     1  Качаем uTorrent версии 2.0 и выше
     2  После установки, жмем выше под постером на ссылку Скачать [MediaGet] или Скачать .torrent
     3  Открываем скачанный файл через соответствующий клиент: MediaGet или uTorrent
     4  Ждем пока подключатся участники
     5  Качаем
    Комментарии о  Звездный десант: Вторжение / Starship Troopers: Invasion | BDRip-AVC 
    Ближайшее в кино
    Вверх