• Игры для PS4
  • Игры для PS3
  • Игры для XBOX360
  • Игры для PC
  • Игры для PS2
  • Игры для PSP
  • Для телефонов
  • Музыка
  • Книги/Журналы
  • Обои
  •  
    Опрос
    Откуда Вы о нас узнали?
      0
    • От знакомых2,1,false,300,full
    • Из социальных сетей2,2,false,300,full
    • Из поисковых систем2,3,false,300,full
    • Другое2,4,false,300,full
    Статистика
    Загрузка...
    Эксперимент «Офис» / Эксперимент Белко / The Belko Experiment | BDRip-AVC
    Статус  Проверено
    В закладки
    Модератор: Max

    Эксперимент «Офис» / Эксперимент Белко / The Belko Experiment | BDRip-AVC [Фильмы 2016] скачать торрентом/torrent бесплатно

    Год выхода
    Язык
    Закачал
    Аноним | 20 сентября 2017 в 09ч 35м 50с
    Раздел
    Отзывов
    0
    Раздают: 0 Качают: 0 Скачали: 0 Размер: 1.45 GB
    Инфо о раздаче | Благодарности |
    0/5
    0
    0 5 0
    Поддержи нас — расскажи друзьям!
    Orbitum
    Новый интернет-браузер Быстрее загружает сайты Экономит интернет—трафик Меняет оформление страницы ВК Блокирует всю рекламу на сайтах Загружает торренты как

    µTorrent

    клиент
    Объеденяет все твои чаты из соц. сетей в один Проигрывает твою музыку не заходя во ВКонтакте
    Скачать и многое другое... Подробности на сайте производителя
    Эксперимент «Офис» / Эксперимент Белко / The Belko Experiment

    Страна: США [img]http://st.kp.yandex.net/images/flags/flag-1.gif[/img] Колумбия [img]http://st.kp.yandex.net/images/flags/flag-56.gif[/img]
    Производство: Metro-Goldwyn-Mayer (MGM), Orion Pictures, Blumhouse Productions, BH Tilt, Itaca Films
    Год выпуска: 2016
    Жанр:  ужасы, боевик, триллер
    Продолжительность: 01:28:45

    Режиссер: Грег МакЛин
    Автор сценария: Джеймс Ганн

    В ролях: Джон Галлахер мл., Тони Голдуин, Адриа Архона, Джон К. МакГинли, Мелони Диас, Овайн Йомэн, Шон Ганн, Брент Секстон, Джош Бренер

    Описание: 80 сотрудников международной корпорации заблокированы в многоэтажном офисном здании. По внутренней связи компании неизвестный голос призывает их участвовать в смертельной игре на выживание. Они должны будут выполнить ряд изощренных заданий, первое из которых — убить коллег, вызывающих наибольшее раздражение. Иначе устроители эксперимента пустят в расход всех. Игра началась!



    Перевод: Профессиональный (полное дублирование)
    Субтитры: нет

    Качество: BDRip-AVC | исходник The.Belko.Experiment.2016.1080p.BluRay.REMUX.AVC.DTS-HD.MA.5.1-EPSiLON
    Формат: МКV
    Видео кодек: AVC
    Аудио кодек: АС3
    Видео: 1024x424 (2.40:1), 23.976 fps, MPEG-4 AVC ~2 150 kbps avg
    Аудио: 48.0 kHz, AC3 Dolby Digital, 2/0 (L,R) ch, ~192 kbps

    Дата премьеры (мир): 10 сентября 2016
    Дата премьеры (РФ): 6 июля 2017, «Экспонента»

    [img]http://s010.radikal.ru/i313/1609/5b/ca3b75e82c69.gif[/img][img]http://s020.radikal.ru/i720/1609/54/5ae4dee54ff4.gif[/img][img]http://s018.radikal.ru/i522/1609/79/3d079e982089.gif[/img]

    Media Info
    General
    Complete name               : Эксперимент «Офис» (2016) BDRip-AVC_ivanes20031987.mkv
    Format                      : Matroska
    Format version              : Version 2
    File size                   : 1.45 GiB
    Duration                    : 1 h 28 min
    Overall bit rate            : 2 342 kb/s
    Encoded date                : UTC 2017-09-19 20:21:36
    Writing application         : mkvmerge v4.4.0 ("Die Wiederkehr") сборка от Jan  3 2011 21:40:45
    Writing library             : libebml v1.0.0 + libmatroska v1.0.0
    Cover                       : Yes

    Video
    ID                          : 1
    Format                      : AVC
    Format/Info                 : Advanced Video Codec
    Format profile              : High@L4.1
    Format settings, CABAC      : Yes
    Format settings, RefFrames  : 12 frames
    Codec ID                    : V_MPEG4/ISO/AVC
    Duration                    : 1 h 28 min
    Bit rate                    : 2 150 kb/s
    Width                       : 1 024 pixels
    Height                      : 424 pixels
    Display aspect ratio        : 2.40:1
    Frame rate mode             : Constant
    Frame rate                  : 23.976 (24000/1001) FPS
    Color space                 : YUV
    Chroma subsampling          : 4:2:0
    Bit depth                   : 8 bits
    Scan type                   : Progressive
    Bits/(Pixel*Frame)          : 0.207
    Stream size                 : 1.30 GiB (90%)
    Writing library             : x264 core 152 r2851kMod ba24899
    Encoding settings           : cabac=1 / ref=12 / deblock=1:-2:-2 / analyse=0x3:0x113 / me=umh / subme=10 / psy=1 / fade_compensate=0.00 / psy_rd=1.00:0.00 / mixed_ref=1 / me_range=32 / chroma_me=1 / trellis=2 / 8x8dct=1 / cqm=0 / deadzone=21,11 / fast_pskip=0 / chroma_qp_offset=-2 / threads=12 / lookahead_threads=3 / sliced_threads=0 / nr=0 / decimate=0 / interlaced=0 / bluray_compat=0 / constrained_intra=0 / bframes=12 / b_pyramid=2 / b_adapt=2 / b_bias=0 / direct=3 / weightb=1 / open_gop=0 / weightp=2 / keyint=240 / keyint_min=23 / scenecut=40 / intra_refresh=0 / rc_lookahead=40 / rc=2pass / mbtree=0 / bitrate=2150 / ratetol=1.0 / qcomp=0.60 / qpmin=0 / qpmax=69 / qpstep=4 / cplxblur=20.0 / qblur=0.5 / vbv_maxrate=50000 / vbv_bufsize=62500 / nal_hrd=none / filler=0 / ip_ratio=1.40 / pb_ratio=1.30 / aq=1:1.00
    Default                     : Yes
    Forced                      : No

    Audio
    ID                          : 2
    Format                      : AC-3
    Format/Info                 : Audio Coding 3
    Format settings, Endianness : Big
    Codec ID                    : A_AC3
    Duration                    : 1 h 28 min
    Bit rate mode               : Constant
    Bit rate                    : 192 kb/s
    Channel(s)                  : 2 channels
    Channel positions           : Front: L R
    Sampling rate               : 48.0 kHz
    Frame rate                  : 31.250 FPS (1536 SPF)
    Bit depth                   : 16 bits
    Compression mode            : Lossy
    Stream size                 : 122 MiB (8%)
    Title                       : Дубляж
    Language                    : Russian
    Service kind                : Complete Main
    Default                     : Yes
    Forced                      : No


    Скриншоты
    [img]http://img12.lostpic.net/2017/09/20/922df9fcf544a002f0a153dedd1ede4e.png[/img][img]http://img12.lostpic.net/2017/09/20/b84198e938935d8f8e59b5901112114a.png[/img][img]http://img12.lostpic.net/2017/09/20/c7f2fc4d242842955720a91892e7347f.png[/img]
    Еще похожие »

    Как скачать?
    1. Качаем UTorrent версии 2.0 и выше отсюда
    2. После установки, жмем на ссылку Скачать торрент.
    3. Открываем его через utorrent.
    4. Ждем пока подключатся участники.
    5. Качаем.


    Комментарии о Эксперимент «Офис» / Эксперимент Белко / The Belko Experiment | BDRip-AVC
    Добавлять комментарии могут только зарегистрированные пользователи

    Зарегистрироваться или Войти


    Ближайшее в кино
    • Безумие Георга III дата выхода 20 ноября 2018Безумие Георга III
      Дата выхода: 20 ноября 2018
    • 7226|Догвилль|22 ноября 2018|200|300Догвилль
      Дата выхода: 22 ноября 2018
    • 1009784|Апгрейд|22 ноября 2018|200|300Апгрейд
      Дата выхода: 22 ноября 2018
    • 988782|Ральф против интернета|22 ноября 2018|200|300Ральф против интернета
      Дата выхода: 22 ноября 2018
    • 965901|Вдовы|22 ноября 2018|200|300Вдовы
      Дата выхода: 22 ноября 2018
    • 1011685|Нация убийц|22 ноября 2018|200|300Нация убийц
      Дата выхода: 22 ноября 2018
    • 891414|Жена|22 ноября 2018|200|300Жена
      Дата выхода: 22 ноября 2018
    • 934207|Мотылёк|22 ноября 2018|200|300Мотылёк
      Дата выхода: 22 ноября 2018
    • 1044912|Вечерняя школа|22 ноября 2018|200|300Вечерняя школа
      Дата выхода: 22 ноября 2018
    • 1036188|Быть Астрид Линдгрен|22 ноября 2018|200|300Быть Астрид Линдгрен
      Дата выхода: 22 ноября 2018
    • 1048852|Помешанный на времени|22 ноября 2018|200|300Помешанный на времени
      Дата выхода: 22 ноября 2018
    • 1049775|Подбросы|22 ноября 2018|200|300Подбросы
      Дата выхода: 22 ноября 2018
    • 1108741|Я — миллиардер|22 ноября 2018|200|300Я — миллиардер
      Дата выхода: 22 ноября 2018
    • 1118041|Три лица|22 ноября 2018|200|300Три лица
      Дата выхода: 22 ноября 2018
    • 1209190|МУЛЬТ в кино. Выпуск 85. Мамин праздник|24 ноября 2018|200|300МУЛЬТ в кино. Выпуск 85. Мамин праздник
      Дата выхода: 24 ноября 2018
    Вверх