• Игры для PS4
  • Игры для PS3
  • Игры для XBOX360
  • Игры для PC
  • Игры для PS2
  • Игры для PSP
  • Для телефонов
  • Музыка
  • Книги/Журналы
  • Обои
  •  
    Опрос
    Откуда Вы о нас узнали?
      0
    • От знакомых2,1,false,300,full
    • Из социальных сетей2,2,false,300,full
    • Из поисковых систем2,3,false,300,full
    • Другое2,4,false,300,full
    Статистика
    Загрузка...
    Смертельная битва / Mortal Kombat | BDRip 1080p
    Статус  Проверено
    В закладки
    Модератор: Max

    Смертельная битва / Mortal Kombat | BDRip 1080p [Фильмы 1995] скачать торрентом/torrent бесплатно

    Год выхода
    Язык
    Закачал
    Max | 20 сентября 2017 в 10ч 19м 43с
    Раздел
    Отзывов
    0
    Раздают: 5 Качают: 0 Скачали: 5 Размер: 10.71 GB
    Инфо о раздаче | Благодарности |
    0/5
    0
    0 5 0
    Поддержи нас — расскажи друзьям!
    Orbitum
    Новый интернет-браузер Быстрее загружает сайты Экономит интернет—трафик Меняет оформление страницы ВК Блокирует всю рекламу на сайтах Загружает торренты как

    µTorrent

    клиент
    Объеденяет все твои чаты из соц. сетей в один Проигрывает твою музыку не заходя во ВКонтакте
    Скачать и многое другое... Подробности на сайте производителя
    Mortal Kombat
    «Ничто в этом мире не сможет подготовить Вас к этому»


    Страна: США
    Жанр: фантастика, фэнтези, боевик, триллер, приключения
    Год выпуска: 1995
    Продолжительность: 01:41:26
    Перевод: 4 x Профессиональный (многоголосый, закадровый), Профессиональный (двухголосый, закадровый), 3 x Авторский
    Субтитры: русские, английские.

    Режиссер: Пол У. С. Андерсон / Paul W.S. Anderson

    В ролях: Робин Шоу (Liu Kang), Линден Эшби (Johnny Cage), Бриджит Уилсон (Sonya Blade), Кристофер Ламберт (Lord Rayden), Кэри-Хироюки Тагава (Shang Tsung), Талиса Сото (Kitana), Тревор Годдард (Kano), Крис Касамасса (Scorpion), Франсуа Пети (Sub-Zero), Кит Кук (Reptile), Хаким Олстон (Fighting Monk), Кеннет Эдвардс (Art Lean)

    Описание: Несколько столетий назад Шанг Тсунг - маг из потустороннего мира захватил в свои руки древний воинский турнир. Его цель - ввергнуть наш мир в хаос. Чтобы спасти человечество от гибели, троим воинам предстоит битва... смертельная битва с силами мрака.

    [img]http://rating.kinopoisk.ru/22355.gif[/img]
    MPAA: PG-13 - Детям до 13 лет просмотр не желателен

    Семпл

    [img]http://lostpix.com/img/2016-10/17/4yze0sco8sy751b4b6vzdqdye.png[/img]

    Качество: BDRip 1080p
    Контейнер: MKV

    Видео: AVC, 1920x1080 (16:9), 10500 kbps, 23,976 fps, 0,212 bpp
    Аудио №1: русский / AC3 / 5.1 / 48 kHz / 640 kbps / MVO ( ОРТ )
    Аудио №2: русский / AC3 / 5.1 / 48 kHz / 448 kbps / MVO ( CP-DIGITAL )
    Аудио №3: русский / AC3 / 5.1 / 48 kHz / 384 kbps / MVO ( DDV )
    Аудио №4: русский / AC3 / 5.1 / 48 kHz / 384 kbps / MVO
    Аудио №5: русский / AC3 / 5.1 / 48 kHz / 640 kbps / DVO ( НТВ )
    Аудио №6: русский / AC3 / 5.1 / 48 kHz / 640 kbps / AVO ( Сербин )
    Аудио №7: русский / AC3 / 5.1 / 48 kHz / 640 kbps / AVO ( Живов )
    Аудио №8: русский / AC3 / 2.0 / 48 kHz / 192 kbps / AVO ( Визгунов )
    Аудио №9: английский / AC3 / 5.1 / 48 kHz / 640 kbps
    Навигация по главам: есть

    Media Info

    Формат                                   : Matroska
    Версия формата                           : Version 2
    Размер файла                             : 10,7 Гбайт
    Продолжительность                        : 1 ч. 41 м.
    Общий поток                              : 15,1 Мбит/сек
    Название фильма                          : = Смертельная битва / Mortal Kombat (1995) BDRip 1080p - KORSAR =
    Дата кодирования                         : UTC 2017-09-19 07:56:10
    Программа кодирования                    : mkvmerge v5.8.0 ("No Sleep / Pillow") built on Sep  2 2012 15:37:04
    Библиотека кодирования                   : libebml v1.2.3 + libmatroska v1.3.0
    Attachment                               : Yes

    Видео
    Идентификатор                            : 1
    Формат                                   : AVC
    Формат/Информация                        : Advanced Video Codec
    Профиль формата                          : High@L4.1
    Параметр CABAC формата                   : Да
    Параметр ReFrames формата                : 4 кадра
    Идентификатор кодека                     : V_MPEG4/ISO/AVC
    Продолжительность                        : 1 ч. 41 м.
    Битрейт                                  : 10,5 Мбит/сек
    Ширина                                   : 1920 пикселей
    Высота                                   : 1080 пикселей
    Соотношение сторон                       : 16:9
    Режим частоты кадров                     : Постоянный
    Частота кадров                           : 23,976 кадра/сек
    Цветовое пространство                    : YUV
    Субдискретизация насыщенности            : 4:2:0
    Битовая глубина                          : 8 бит
    Тип развёртки                            : Прогрессивная
    Бит/(Пиксели*Кадры)                      : 0.211
    Размер потока                            : 7,23 Гбайт (68%)
    Заголовок                                : Смертельная битва / Mortal Kombat (1995) BDRip 1080p - KORSAR
    Библиотека кодирования                   : x264 core 148 r2744kMod b97ae06
    Настройки программы                      : cabac=1 / ref=4 / deblock=1:-3:-3 / analyse=0x3:0x113 / me=umh / subme=11 / psy=1 / fade_compensate=0.00 / psy_rd=1.00:0.00 / mixed_ref=1 / me_range=32 / chroma_me=1 / trellis=2 / 8x8dct=1 / cqm=0 / deadzone=21,11 / fast_pskip=0 / chroma_qp_offset=-2 / threads=12 / lookahead_threads=3 / sliced_threads=0 / nr=0 / decimate=0 / interlaced=0 / bluray_compat=0 / constrained_intra=0 / bframes=10 / b_pyramid=2 / b_adapt=2 / b_bias=0 / direct=3 / weightb=1 / open_gop=0 / weightp=2 / keyint=240 / keyint_min=23 / scenecut=40 / intra_refresh=0 / rc_lookahead=60 / rc=2pass / mbtree=0 / bitrate=10500 / ratetol=1.0 / qcomp=0.60 / qpmin=0 / qpmax=69 / qpstep=4 / cplxblur=20.0 / qblur=0.5 / vbv_maxrate=50000 / vbv_bufsize=62500 / nal_hrd=none / filler=0 / ip_ratio=1.40 / pb_ratio=1.30 / aq=3:0.80
    Язык                                     : English
    Default                                  : Да
    Forced                                   : Нет
    Основные цвета                           : BT.709
    Характеристики трансфера                 : BT.709
    Коэффициенты матрицы                     : BT.709

    Аудио #1
    Идентификатор                            : 2
    Формат                                   : AC-3
    Формат/Информация                        : Audio Coding 3
    Расширение режима                        : CM (complete main)
    Параметр Endianness формата              : Big
    Идентификатор кодека                     : A_AC3
    Продолжительность                        : 1 ч. 41 м.
    Вид битрейта                             : Постоянный
    Битрейт                                  : 640 Кбит/сек
    Каналы                                   : 6 каналов
    Расположение каналов                     : Front: L C R, Side: L R, LFE
    Частота                                  : 48,0 КГц
    Битовая глубина                          : 16 бит
    Метод сжатия                             : С потерями
    Размер потока                            : 464 Мбайт (4%)
    Заголовок                                : MVO ( ОРТ )
    Язык                                     : Russian
    Default                                  : Да
    Forced                                   : Нет

    Аудио #2
    Идентификатор                            : 3
    Формат                                   : AC-3
    Формат/Информация                        : Audio Coding 3
    Расширение режима                        : CM (complete main)
    Параметр Endianness формата              : Big
    Идентификатор кодека                     : A_AC3
    Продолжительность                        : 1 ч. 41 м.
    Вид битрейта                             : Постоянный
    Битрейт                                  : 448 Кбит/сек
    Каналы                                   : 6 каналов
    Расположение каналов                     : Front: L C R, Side: L R, LFE
    Частота                                  : 48,0 КГц
    Битовая глубина                          : 16 бит
    Метод сжатия                             : С потерями
    Размер потока                            : 325 Мбайт (3%)
    Заголовок                                : MVO ( CP-DIGITAL )
    Язык                                     : Russian
    Default                                  : Нет
    Forced                                   : Нет

    Аудио #3
    Идентификатор                            : 4
    Формат                                   : AC-3
    Формат/Информация                        : Audio Coding 3
    Расширение режима                        : CM (complete main)
    Параметр Endianness формата              : Big
    Идентификатор кодека                     : A_AC3
    Продолжительность                        : 1 ч. 41 м.
    Вид битрейта                             : Постоянный
    Битрейт                                  : 384 Кбит/сек
    Каналы                                   : 6 каналов
    Расположение каналов                     : Front: L C R, Side: L R, LFE
    Частота                                  : 48,0 КГц
    Битовая глубина                          : 16 бит
    Метод сжатия                             : С потерями
    Размер потока                            : 279 Мбайт (3%)
    Заголовок                                : MVO ( DDV )
    Язык                                     : Russian
    Default                                  : Нет
    Forced                                   : Нет

    Аудио #4
    Идентификатор                            : 5
    Формат                                   : AC-3
    Формат/Информация                        : Audio Coding 3
    Расширение режима                        : CM (complete main)
    Параметр Endianness формата              : Big
    Идентификатор кодека                     : A_AC3
    Продолжительность                        : 1 ч. 41 м.
    Вид битрейта                             : Постоянный
    Битрейт                                  : 384 Кбит/сек
    Каналы                                   : 6 каналов
    Расположение каналов                     : Front: L C R, Side: L R, LFE
    Частота                                  : 48,0 КГц
    Битовая глубина                          : 16 бит
    Метод сжатия                             : С потерями
    Размер потока                            : 279 Мбайт (3%)
    Заголовок                                : MVO
    Язык                                     : Russian
    Default                                  : Нет
    Forced                                   : Нет

    Аудио #5
    Идентификатор                            : 6
    Формат                                   : AC-3
    Формат/Информация                        : Audio Coding 3
    Расширение режима                        : CM (complete main)
    Параметр Endianness формата              : Big
    Идентификатор кодека                     : A_AC3
    Продолжительность                        : 1 ч. 41 м.
    Вид битрейта                             : Постоянный
    Битрейт                                  : 640 Кбит/сек
    Каналы                                   : 6 каналов
    Расположение каналов                     : Front: L C R, Side: L R, LFE
    Частота                                  : 48,0 КГц
    Битовая глубина                          : 16 бит
    Метод сжатия                             : С потерями
    Размер потока                            : 464 Мбайт (4%)
    Заголовок                                : DVO ( НТВ )
    Язык                                     : Russian
    Default                                  : Нет
    Forced                                   : Нет

    Аудио #6
    Идентификатор                            : 7
    Формат                                   : AC-3
    Формат/Информация                        : Audio Coding 3
    Расширение режима                        : CM (complete main)
    Параметр Endianness формата              : Big
    Идентификатор кодека                     : A_AC3
    Продолжительность                        : 1 ч. 41 м.
    Вид битрейта                             : Постоянный
    Битрейт                                  : 640 Кбит/сек
    Каналы                                   : 6 каналов
    Расположение каналов                     : Front: L C R, Side: L R, LFE
    Частота                                  : 48,0 КГц
    Битовая глубина                          : 16 бит
    Метод сжатия                             : С потерями
    Размер потока                            : 464 Мбайт (4%)
    Заголовок                                : AVO ( Сербин )
    Язык                                     : Russian
    Default                                  : Нет
    Forced                                   : Нет

    Аудио #7
    Идентификатор                            : 8
    Формат                                   : AC-3
    Формат/Информация                        : Audio Coding 3
    Расширение режима                        : CM (complete main)
    Параметр Endianness формата              : Big
    Идентификатор кодека                     : A_AC3
    Продолжительность                        : 1 ч. 41 м.
    Вид битрейта                             : Постоянный
    Битрейт                                  : 640 Кбит/сек
    Каналы                                   : 6 каналов
    Расположение каналов                     : Front: L C R, Side: L R, LFE
    Частота                                  : 48,0 КГц
    Битовая глубина                          : 16 бит
    Метод сжатия                             : С потерями
    Размер потока                            : 464 Мбайт (4%)
    Заголовок                                : AVO ( Живов )
    Язык                                     : Russian
    Default                                  : Нет
    Forced                                   : Нет

    Аудио #8
    Идентификатор                            : 9
    Формат                                   : AC-3
    Формат/Информация                        : Audio Coding 3
    Расширение режима                        : CM (complete main)
    Параметр Endianness формата              : Big
    Идентификатор кодека                     : A_AC3
    Продолжительность                        : 1 ч. 41 м.
    Вид битрейта                             : Постоянный
    Битрейт                                  : 192 Кбит/сек
    Каналы                                   : 2 канала
    Расположение каналов                     : Front: L R
    Частота                                  : 48,0 КГц
    Битовая глубина                          : 16 бит
    Метод сжатия                             : С потерями
    Размер потока                            : 139 Мбайт (1%)
    Заголовок                                : AVO ( Визгунов )
    Язык                                     : Russian
    Default                                  : Нет
    Forced                                   : Нет

    Аудио #9
    Идентификатор                            : 10
    Формат                                   : AC-3
    Формат/Информация                        : Audio Coding 3
    Расширение режима                        : CM (complete main)
    Параметр Endianness формата              : Big
    Идентификатор кодека                     : A_AC3
    Продолжительность                        : 1 ч. 41 м.
    Вид битрейта                             : Постоянный
    Битрейт                                  : 640 Кбит/сек
    Каналы                                   : 6 каналов
    Расположение каналов                     : Front: L C R, Side: L R, LFE
    Частота                                  : 48,0 КГц
    Битовая глубина                          : 16 бит
    Метод сжатия                             : С потерями
    Размер потока                            : 464 Мбайт (4%)
    Язык                                     : English
    Default                                  : Нет
    Forced                                   : Нет

    Текст #1
    Идентификатор                            : 11
    Формат                                   : UTF-8
    Идентификатор кодека                     : S_TEXT/UTF8
    Идентификатор кодека/Информация          : UTF-8 Plain Text
    Язык                                     : Russian
    Default                                  : Нет
    Forced                                   : Нет

    Текст #2
    Идентификатор                            : 12
    Формат                                   : UTF-8
    Идентификатор кодека                     : S_TEXT/UTF8
    Идентификатор кодека/Информация          : UTF-8 Plain Text
    Язык                                     : English
    Default                                  : Нет
    Forced                                   : Нет

    Меню
    00:00:00.000                             : en:Chapter 01
    00:00:50.133                             : en:Chapter 02
    00:02:39.284                             : en:Chapter 03
    00:04:50.414                             : en:Chapter 04
    00:07:56.893                             : en:Chapter 05
    00:12:10.354                             : en:Chapter 06
    00:15:35.934                             : en:Chapter 07
    00:18:15.219                             : en:Chapter 08
    00:21:30.372                             : en:Chapter 09
    00:25:00.831                             : en:Chapter 10
    00:29:01.030                             : en:Chapter 11
    00:36:24.556                             : en:Chapter 12
    00:39:41.670                             : en:Chapter 13
    00:42:41.850                             : en:Chapter 14
    00:45:38.527                             : en:Chapter 15
    00:50:59.473                             : en:Chapter 16
    00:52:52.252                             : en:Chapter 17
    00:56:08.281                             : en:Chapter 18
    01:00:15.028                             : en:Chapter 19
    01:05:48.653                             : en:Chapter 20
    01:09:06.015                             : en:Chapter 21
    01:10:51.956                             : en:Chapter 22
    01:17:09.666                             : en:Chapter 23
    01:20:50.470                             : en:Chapter 24
    01:23:53.987                             : en:Chapter 25
    01:30:26.629                             : en:Chapter 26
    01:31:34.863                             : en:Chapter 27
    01:41:24.828                             : en:Chapter 28


    Скриншоты

    [img]http://img12.lostpic.net/2017/09/20/47b61d216b0338ec54bc5939d22b3a17.png[/img][img]http://img12.lostpic.net/2017/09/20/d67f07adbf86f68e6be68fc980aa5701.png[/img][img]http://img12.lostpic.net/2017/09/20/6745b873ee8997eb785ec6f724fbbc5d.png[/img][img]http://img12.lostpic.net/2017/09/20/e21b7fc4826f7af5eababaa59af42239.png[/img]
    [img]http://img12.lostpic.net/2017/09/20/d2c0671e1a8211696a404ac5915a3083.png[/img][img]http://img12.lostpic.net/2017/09/20/0c80b68b12b1325e1819a846fac8902e.png[/img][img]http://img12.lostpic.net/2017/09/20/6666bef85fc7186f4faae0c1cfa8326e.png[/img][img]http://img12.lostpic.net/2017/09/20/af3b4dad49953e44430bcc14b0a19033.png[/img]
    Еще похожие »

    Как скачать?
    1. Качаем UTorrent версии 2.0 и выше отсюда
    2. После установки, жмем на ссылку Скачать торрент.
    3. Открываем его через utorrent.
    4. Ждем пока подключатся участники.
    5. Качаем.


    Комментарии о Смертельная битва / Mortal Kombat | BDRip 1080p
    Добавлять комментарии могут только зарегистрированные пользователи

    Зарегистрироваться или Войти


    Ближайшее в кино
    • Аллилуйя! дата выхода 13 ноября 2018Аллилуйя!
      Дата выхода: 13 ноября 2018
    • 1199695|Coldplay: A Head Full of Dreams|14 ноября 2018|200|300Coldplay: A Head Full of Dreams
      Дата выхода: 14 ноября 2018
    • 843479|Фантастические твари: Преступления Грин-де-Вальда|15 ноября 2018|200|300Фантастические твари: Преступления Грин-де-Вальда
      Дата выхода: 15 ноября 2018
    • 1070264|Догмэн|15 ноября 2018|200|300Догмэн
      Дата выхода: 15 ноября 2018
    • 1068448|Оцепеневшие от страха|15 ноября 2018|200|300Оцепеневшие от страха
      Дата выхода: 15 ноября 2018
    • 1065878|Холодная война|15 ноября 2018|200|300Холодная война
      Дата выхода: 15 ноября 2018
    • 933787|Не чужие|15 ноября 2018|200|300Не чужие
      Дата выхода: 15 ноября 2018
    • 1045040|Облепиховое лето|15 ноября 2018|200|300Облепиховое лето
      Дата выхода: 15 ноября 2018
    • 1085625|Соната|15 ноября 2018|200|300Соната
      Дата выхода: 15 ноября 2018
    • 1174349|Безумие Георга III|20 ноября 2018|200|300Безумие Георга III
      Дата выхода: 20 ноября 2018
    • 7226|Догвилль|22 ноября 2018|200|300Догвилль
      Дата выхода: 22 ноября 2018
    • 1009784|Апгрейд|22 ноября 2018|200|300Апгрейд
      Дата выхода: 22 ноября 2018
    • 988782|Ральф против интернета|22 ноября 2018|200|300Ральф против интернета
      Дата выхода: 22 ноября 2018
    • 965901|Вдовы|22 ноября 2018|200|300Вдовы
      Дата выхода: 22 ноября 2018
    • 1011685|Нация убийц|22 ноября 2018|200|300Нация убийц
      Дата выхода: 22 ноября 2018
    Вверх